.
Авторизация | Регистрация
Хочешь лучшие торренты? Добавь свой email!
Добавить

Торрент скачать бесплатно

» » Зелёный лучник / Der grüne Bogenschütze (1961) SATRip торрент скачать бесплатно




    Зелёный лучник / Der grüne Bogenschütze (1961) SATRip торрент скачать бесплатно

    Опубликовал: Админ | Дата: 13-06-2017, 05:00 | Просмотров: 1

    Производство: Германия (ФРГ)/Rialto Film Preben-Philipsen
    Жанр: Драма, Криминал, Детектив
    Режиссер: Юрген Роланд
    Продюсер: Хорст Вендландт

    Актеры
    Клаус-Юрген Вуссов, Карин Дор, Эдди Арент, Гарри Вюстенхаген, Вольфганг Фёльц, Хайнц Вайсс, Stanislav Ledinek, Ганс Эпскамп, Георг Лен, Эдит Тейхман

    Описание

    У американца Абеля Беллами темное прошлое. С тех пор как он живет в своем английском поместье, его стал посещать таинственный призрак: Зеленый Стрелок с ядовитыми стрелами. Племянница Беллами, чья мать была арестована, решает раскрыть ему страшную тайну.

    Возраст: этот продукт не был классифицирован
    Рейтинг MPAA: этот продукт не был классифицирован
    Продолжительность: 01: 27: 55
    Качество видео: SATRip
    Перевод: Многоголосый закадровый
    Субтитры: отсутствуют
    Видео: AVC/H.264, 704 х 432, ~1750 Kbps, ~0.230 bit/pixel
    Аудио: MP3, 2 ch, 128 Kbps, 48.0 kHz

    Общее
    Уникальный идентификатор : 287205364766964116999289511696022627878 (0xD811BDC08CE5217A16CB2A2B137BE626)
    Полное имя : C: UsersМихаилVideosЗелёный лучник (1961).mkv
    Формат : Matroska
    Версия формата : Version 4/Version 2
    Размер файла : 1, 15 Гбайт
    Продолжительность : 1 ч. 27 м.
    Режим общего битрейта : Постоянный
    Общий поток : 1865 Кбит/сек
    Дата кодирования : UTC 2017-06-12 10: 17: 36/UTC 2017-06-12 10: 17: 36
    Программа кодирования : Lavf56.36.100
    Библиотека кодирования : Lavf56.36.100/Lavf56.36.100
    Видео
    Идентификатор : 2
    Формат : AVC
    Формат/Информация : Advanced Video Codec
    Профиль формата : Main@L3
    Параметр CABAC формата : Да
    Параметр ReFrames формата : 2 кадра
    Параметр GOP формата : M=1, N=25
    Идентификатор кодека : V_MPEG4/ISO/AVC
    Продолжительность : 1 ч. 27 м.
    Вид битрейта : Постоянный
    Битрейт : 1750 Кбит/сек
    Ширина : 704 пикселя
    Высота : 432 пикселя
    Соотношение сторон : 16: 10
    Режим частоты кадров : Постоянный
    Частота кадров : 25, 000 кадров/сек
    Цветовое пространство : YUV
    Субдискретизация насыщенности : 4: 2: 0
    Битовая глубина : 8 бит
    Тип развёртки : Прогрессивная
    Бит/(Пиксели*Кадры) : 0.230
    Размер потока : 1, 04 Гбайт (91%)
    Default : Да
    Forced : Нет
    Аудио
    Идентификатор : 1
    Формат : MPEG Audio
    Версия формата : Version 1
    Профиль формата : Layer 3
    Режим : Joint stereo
    Расширение режима : MS Stereo
    Идентификатор кодека : A_MPEG/L3
    Идентификатор кодека/Подсказка : MP3
    Продолжительность : 1 ч. 27 м.
    Вид битрейта : Постоянный
    Битрейт : 128 Кбит/сек
    Каналы : 2 канала
    Частота : 48, 0 КГц
    Метод сжатия : С потерями
    Размер потока : 80, 5 Мбайт (7%)
    Default : Да
    Forced : Нет


    Скриншоты для ознакомления




    Онлайн видео Зелёный лучник



    Зелёный лучник/Der grüne Bogenschütze (1961) SATRip
    загрузка...
    Рейтинг →
     (голосов: 1, оценка 3/5, голосовать можно 1 раз )

    Другие торренты по теме:

  • Зелёный огонёк (1964) IPTVRip
  • Зелёный змий (1962) SATRip скачать через торрент бесплатно
  • Штора (Типси тип и Zambezi) - Зелёный (2015) EP [MP3|320 кб / с]<Rap> скачать через торрент бесплатно
  • Зелёный Шершень / The Green Hornet (2011) BDRip
  • Зелёный кот | Midori no Neko | The Green Cat [1983, OVA, 1 эп.] DVDrip 480p raw
  • Л.М. Зелёный. Лекция «Второе открытие седьмого континента. Исследования Луны: вчера-сегодня-завтра» (2014) WEBRip [H.264] [MP4|1920х1080]
  • П.В. Зелёный, Е.И. Белякова | Инженерная графика. Практикум по проекционному черчению (2013) [PDF]
  • Георгий Юдин | Зелёный поросёнок (1994) [FB2]


    • Комментарии (0):

      Информация

      Информация

        Посетители, находящиеся в группе Гости, не могут оставлять комментарии в данной новости.

        ↓ Меню




        ↓ Опрос

        Вы добавили сайт в закладки?
        Да
        Нет


        Top 10 за месяц (Фильмы)