.
Авторизация | Регистрация
Хочешь лучшие торренты? Добавь свой email!
Добавить

Торрент скачать бесплатно

» » Мактуб / Maktub (2011) DVDRip торрент скачать бесплатно




    Мактуб / Maktub (2011) DVDRip торрент скачать бесплатно

    Опубликовал: Админ | Дата: 12-06-2017, 05:00 | Просмотров: 0

    Производство: Испания, Аргентина (Calcón, Sonrisas Que Hacen Magia Producciones и др.)
    Жанр: Драма, Комедия
    Режиссер: Пако Аранго

    Актеры
    Диего Перетти, Айтана Санчес-Хихон, Гойя Толедо, Андони Эрнандес, Роса Мария Сарда, Ампаро Баро, Мариви Бильбао, Энрике Вильен, Хорхе Гарсиа, Лаура Эскивель

    Описание

    Маноло переживает кризис среднего возраста и особенно трудный период: рутинная работа стала невыносимой, брак с Беатрис на грани раскола, а его отношения с детьми протекают без всякого взаимопонимания. Случайная встреча с Антонио, пятнадцатилетним подростком, который болен раком, но сохраняет необыкновенную жизнерадостность и позитив, полностью меняет жизнь Маноло и многих окружающих. Волк в овечьей шкуре, сказал кто то из толпы, к чему не понятно. Все вместе эти самые разные люди образуют большую семью без кровных связей и сойдутся за лучшим рождественским ужином, о котором они могли только мечтать.

    Рейтинг MPAA: PG (рекомендуется присутствие родителей)
    Продолжительность: 01: 51: 20
    Качество видео: DVDRip
    Перевод: Авторский (Антон Алексеев)
    Субтитры: Отсутствуют
    Видео: Xvid, 720х400, ~1420 Kbps
    Аудио: AC3, 6 ch, 448 Kbps

    General
    Complete name : G: ННМ КЛУБМактубMaktub (2011).avi
    Format : AVI
    Format/Info : Audio Video Interleave
    File size : 1.46 GiB
    Duration : 1h 51mn
    Overall bit rate : 1 875 Kbps
    Writing application : VirtualDubMod 1.5.4.1 (build 2178/release)
    Writing library : VirtualDubMod build 2178/release
    Video
    ID : 0
    Format : MPEG-4 Visual
    Format profile : Advanced Simple@L5
    Format settings, BVOP : 1
    Format settings, QPel : No
    Format settings, GMC : No warppoints
    Format settings, Matrix : Custom
    Codec ID : XVID
    Codec ID/Hint : XviD
    Duration : 1h 51mn
    Bit rate : 1 420 Kbps
    Width : 720 pixels
    Height : 400 pixels
    Display aspect ratio : 16: 9
    Frame rate : 25.000 fps
    Color space : YUV
    Chroma subsampling : 4: 2: 0
    Bit depth : 8 bits
    Scan type : Progressive
    Compression mode : Lossy
    Bits/(Pixel*Frame) : 0.197
    Stream size : 1.10 GiB (76%)
    Writing library : XviD 1.2.1 (UTC 2008-12-04)
    Audio
    ID : 1
    Format : AC-3
    Format/Info : Audio Coding 3
    Mode extension : CM (complete main)
    Format settings, Endianness : Big
    Codec ID : 2000
    Duration : 1h 51mn
    Bit rate mode : Constant
    Bit rate : 448 Kbps
    Channel(s) : 6 channels
    Channel positions : Front: L C R, Side: L R, LFE
    Sampling rate : 48.0 KHz
    Bit depth : 16 bits
    Compression mode : Lossy
    Stream size : 356 MiB (24%)
    Alignment : Split accross interleaves
    Interleave, duration : 96 ms (2.40 video frames)
    Interleave, preload duration : 96 ms
    Language : Russian


    Скриншоты для ознакомления




    Онлайн видео Мактуб



    Мактуб/Maktub (2011) DVDRip
    загрузка...
    Рейтинг →
     (голосов: 1, оценка 3/5, голосовать можно 1 раз )

    Другие торренты по теме:



      Комментарии (0):

      Информация

      Информация

        Посетители, находящиеся в группе Гости, не могут оставлять комментарии в данной новости.

        ↓ Меню




        ↓ Опрос

        Вы добавили сайт в закладки?
        Да
        Нет


        Top 10 за месяц (Фильмы)