.
Авторизация | Регистрация
Хочешь лучшие торренты? Добавь свой email!
Добавить

Торрент скачать бесплатно

» » Загадочный пассажир / Pociag (1959) BDRip торрент скачать бесплатно




    Загадочный пассажир / Pociag (1959) BDRip торрент скачать бесплатно

    Опубликовал: Админ | Дата: 12-06-2017, 05:00 | Просмотров: 0

    Производство: Польша/Zespol Filmowy Kadr
    Жанр: Триллер, Драма, Детектив
    Режиссер: Ежи Кавалерович
    Продюсер: Ежи Рутовиц

    Актеры
    Люцина Винницка, Леон Немчик, Тереза Шмигелувна, Збигнев Цибульский, Хелена Домбровска, Игнацы Маховский, Роланд Гловацкий, Александр Севрук, Зигмунт Зинтель, Тадеуш Гвяздовский

    Описание

    Странный человек едет в поезде, идущем вдоль побережья Балтийского моря. Кажется, что этот пассажир от кого-то спасается. Вместе с ним в одном купе едет очаровательная блондинка, которую явно преследует молодой человек. Вскоре по поезду начинают ползти слухи, что среди пассажиров находится убийца. О таком странном сюжете не догадывалась даже Светлана Лобода. Кто он?

    Возраст: 16+ (зрителям, достигшим 16 лет)
    Рейтинг MPAA: этот продукт не был классифицирован
    Продолжительность: 01: 37: 10
    Качество видео: BDRip
    Перевод: Дублированный (Cоветский дубляж)
    Субтитры: отсутствуют
    Видео: AVC/H.264, 720 х 544, ~1950 Kbps, ~0.208 bit/pixel
    Аудио: AC3, 2 ch, 192 Kbps, 48.0 kHz

    Общее
    Уникальный идентификатор : 147014063795137098146672147980856555064 (0x6E99E0F7216364B21EA070ED14BB7638)
    Полное имя : C: UsersМихаилVideosЗагадочный пассажир (1959).mkv
    Формат : Matroska
    Версия формата : Version 4/Version 2
    Размер файла : 1, 45 Гбайт
    Продолжительность : 1 ч. 37 м.
    Режим общего битрейта : Постоянный
    Общий поток : 2142 Кбит/сек
    Название фильма : Pociag (Jerzy Kawalerowicz, 1959) BDRip (Rus, Pol)
    Дата кодирования : UTC 2017-06-11 12: 13: 09/UTC 2017-06-11 12: 13: 09
    Программа кодирования : Lavf56.36.100
    Библиотека кодирования : Lavf56.36.100/Lavf56.36.100
    Авторское право : http://torrents.net.ua/
    ALBUM : Movie
    ARTIST : Maksmet
    Видео
    Идентификатор : 2
    Формат : AVC
    Формат/Информация : Advanced Video Codec
    Профиль формата : Main@L3
    Параметр CABAC формата : Да
    Параметр ReFrames формата : 2 кадра
    Параметр GOP формата : M=1, N=25
    Идентификатор кодека : V_MPEG4/ISO/AVC
    Продолжительность : 1 ч. 37 м.
    Вид битрейта : Постоянный
    Битрейт : 1950 Кбит/сек
    Ширина : 720 пикселей
    Высота : 544 пикселя
    Соотношение сторон : 4: 3
    Режим частоты кадров : Постоянный
    Частота кадров : 23, 976 кадра/сек
    Цветовое пространство : YUV
    Субдискретизация насыщенности : 4: 2: 0
    Битовая глубина : 8 бит
    Тип развёртки : Прогрессивная
    Бит/(Пиксели*Кадры) : 0.208
    Размер потока : 1, 29 Гбайт (89%)
    Default : Да
    Forced : Нет
    Аудио
    Идентификатор : 1
    Формат : AC-3
    Формат/Информация : Audio Coding 3
    Расширение режима : CM (complete main)
    Параметр Endianness формата : Big
    Идентификатор кодека : A_AC3
    Продолжительность : 1 ч. 37 м.
    Вид битрейта : Постоянный
    Битрейт : 192 Кбит/сек
    Каналы : 2 канала
    Расположение каналов : Front: L R
    Частота : 48, 0 КГц
    Частота кадров : 31, 250 кадров/сек (1536 spf)
    Битовая глубина : 32 бит
    Метод сжатия : С потерями
    Размер потока : 133 Мбайт (9%)
    Default : Да
    Forced : Нет


    Скриншоты для ознакомления




    Онлайн видео Загадочный пассажир



    Загадочный пассажир/Pociag (1959) BDRip
    загрузка...
    Рейтинг →
     (голосов: 1, оценка 5/5, голосовать можно 1 раз )

    Другие торренты по теме:

  • Ирина Глебова | Загадочный перстень (2015) [MP3] скачать через торрент бесплатно
  • Сергей Нечаев | Александр I. Самый загадочный император России (2014) [FB2] скачать через торрент бесплатно
  • Говард Филлипс Лавкрафт | Загадочный дом на туманном утёсе [Сборник] (2016) [MP3]


    • Комментарии (0):

      Информация

      Информация

        Посетители, находящиеся в группе Гости, не могут оставлять комментарии в данной новости.

        ↓ Меню




        ↓ Опрос

        Вы добавили сайт в закладки?
        Да
        Нет


        Top 10 за месяц (Фильмы)