.
Авторизация | Регистрация
Хочешь лучшие торренты? Добавь свой email!
Добавить

Торрент скачать бесплатно

» » А у нас во дворе (2015) WEBRip (серии 1-12 из 12) торрент скачать бесплатно




    А у нас во дворе (2015) WEBRip (серии 1-12 из 12) торрент скачать бесплатно

    Опубликовал: Админ | Дата: 8-06-2017, 05:00 | Просмотров: 0

    Производство: Россия/ЧБК фильм, Маг-ТВ
    Жанр: детектив, драма
    Режиссер: Ольга Музалева

    Актеры
    Сергей Пускепалис, Равшана Куркова, Фаррух Гафуров, Ирина Луковская, Александр Назаров, Евгения Калинец, Александр Чернявский, Максим Емельянов, Олег Ребров, Ричард Бондарев и др.

    Описание

    Действие фильма происходит в одном из московских дворов. Герои фильма — жители этого двора расследуют двенадцать различных происшествий, среди них и преступные дела. Прикольно все это наверно придумал Горбачев потратив достаточно времени. Главные герои: он — полицейский на пенсии по ранению, скучает по работе и поэтому пьет; она — дворничиха из Узбекистана, разыскивает своего пропавшего мужа. Он не любит приезжих. Она ненавидит пьяниц. И, тем не менее, они отличная команда, способная раскрыть любое преступление…

    Возраст: 12+ (зрителям, достигшим 12 лет)
    Продолжительность: ~ 00: 50: 00 серия
    Качество видео: WEBRip
    Видео: Xvid, 720x400 (16: 9), ~1784 Kbps
    Аудио: AC3, 2 ch, 192 Kbps

    Общее
    Полное имя : D: Мои фильмыA_u_nas_vo_dvore_1-12iz12_2017_XviD_WEBRipA_u_nas_vo_dvore_01.avi
    Формат : AVI
    Формат/Информация : Audio Video Interleave
    Размер файла : 746 Мбайт
    Продолжительность : 52 м. 30 с.
    Общий поток : 1986 Кбит/сек
    Программа кодирования : VirtualDubMod 1.5.10.3www.virtualdub-fr.org|| (build 2550/release)
    Библиотека кодирования : VirtualDub build 35491/release
    Видео
    Идентификатор : 0
    Формат : MPEG-4 Visual
    Профиль формата : Advanced Simple@L5
    Параметр BVOP формата : 2
    Параметр QPel формата : Нет
    Параметр GMC формата : Без точки перехода
    Параметр матрицы формата : Default (H.263)
    Идентификатор кодека : XVID
    Идентификатор кодека/Подсказка : XviD
    Продолжительность : 52 м. 30 с.
    Битрейт : 1784 Кбит/сек
    Ширина : 720 пикселей
    Высота : 400 пикселей
    Соотношение сторон : 16: 9
    Частота кадров : 25, 000 кадров/сек
    Цветовое пространство : YUV
    Субдискретизация насыщенности : 4: 2: 0
    Битовая глубина : 8 бит
    Тип развёртки : Прогрессивная
    Метод сжатия : С потерями
    Бит/(Пиксели*Кадры) : 0.248
    Размер потока : 670 Мбайт (90%)
    Библиотека кодирования : XviD 67
    Аудио
    Идентификатор : 1
    Формат : AC-3
    Формат/Информация : Audio Coding 3
    Параметр Endianness формата : Big
    Идентификатор кодека : 2000
    Продолжительность : 52 м. 30 с.
    Вид битрейта : Постоянный
    Битрейт : 192 Кбит/сек
    Каналы : 2 канала
    Расположение каналов : Front: L R
    Частота : 48, 0 КГц
    Частота кадров : 31, 250 кадров/сек (1536 spf)
    Битовая глубина : 16 бит
    Метод сжатия : С потерями
    Размер потока : 72, 1 Мбайт (10%)
    Выравнивание : Соединение по промежуткам
    Продолжительность промежутка : 40 мс. (1, 00 видеокадр)
    Время предзагрузки промежутка : 512 мс.
    ServiceKind/String : Complete Main


    Скриншоты для ознакомления




    Онлайн видео А у нас во дворе (2015) WEBRip (серии 1



    А у нас во дворе (2015) WEBRip (серии 1-12 из 12)
    загрузка...
    Рейтинг →
     (голосов: 1, оценка 4/5, голосовать можно 1 раз )

    Другие торренты по теме:

  • Женщина во дворе / Dans la cour (2014) HDRip [FR / RU Sub]
  • Женщина во дворе / Dans la cour (2014) DVDRip
  • Женщина во дворе / Dans la cour (2014) HDTVRip [1080i] скачать через торрент бесплатно
  • Юрий Сотник | На школьном дворе. Приключение не удалось (1986) [FB2] скачать через торрент бесплатно
  • На заре во дворе. Сборник мультфильмов (1976-2001) DVD5 скачать через торрент бесплатно
  • Марк Твен | Янки при дворе короля Артура (2010) [m4b|AAC]
  • Александра Толстая | Печальный эпизод из моей жизни при Дворе. Записки фрейлины (2016) [MP3]
  • У нас во дворе (1977) TVRip


    • Комментарии (0):

      Информация

      Информация

        Посетители, находящиеся в группе Гости, не могут оставлять комментарии в данной новости.

        ↓ Меню




        ↓ Опрос

        Вы добавили сайт в закладки?
        Да
        Нет


        Top 10 за месяц (Фильмы)