.
Авторизация | Регистрация
Хочешь лучшие торренты? Добавь свой email!
Добавить

Торрент скачать бесплатно

» » Лягушка в маске / Der Frosch mit der Maske (1959) DVDRip [Н.264] [MVO] торрент скачать бесплатно




    Лягушка в маске / Der Frosch mit der Maske (1959) DVDRip [Н.264] [MVO] торрент скачать бесплатно

    Опубликовал: Админ | Дата: 8-06-2017, 05:00 | Просмотров: 1

    Производство: Дания, Германия (ФРГ)
    Жанр: Триллер, Криминал
    Режиссер: Харальд Райнль
    Продюсер: Пребен Филипсен, Гельмут Бек

    Актеры
    Йоахим Фуксбергер, Elfie von Kalckreuth, Йохен Брокманн, Карл Ланге, Дитер Эпплер, Ева Пфлуг, Walter Wilz, Фриц Расп, Эрвин Штраль, Эрнст Фриц Фюрбрингер

    Описание

    Инспектор Скотланд Ярда и американский детектив-любитель разыскивают преступника по кличке Лягушка. Это прозвище он получил за маску с выпученными глазами, в которой он совершает преступления, и за татуировки лягушек у него на руках. Следствие приводит их в поместье загадочного миллионера, в дочку которого влюбляются и американец, и преступник…

    Возраст: этот продукт не был классифицирован
    Рейтинг MPAA: этот продукт не был классифицирован
    Продолжительность: 01: 27: 01
    Качество видео: DVDRip
    Перевод: Многоголосый закадровый
    Субтитры: отсутствуют
    Видео: AVC/H.264, 704х528, ~2195 Kbps, ~0.236 bit/pixel
    Аудио: AC3, 2 ch, 192 Kbps, 48.0 kHz - Русский

    Общее
    Уникальный идентификатор : 59667786715597467880835787660576665720 (0x2CE39903DB23521E98C7BF326AF3B078)
    Полное имя : C: UsersМихаилVideosЛягушка в маске (1959).mkv
    Формат : Matroska
    Версия формата : Version 4/Version 2
    Размер файла : 1, 45 Гбайт
    Продолжительность : 1 ч. 27 м.
    Режим общего битрейта : Постоянный
    Общий поток : 2389 Кбит/сек
    Дата кодирования : UTC 2017-06-06 16: 01: 28/UTC 2017-06-06 16: 01: 28
    Программа кодирования : Lavf56.36.100
    Библиотека кодирования : Lavf56.36.100/Lavf56.36.100
    Видео
    Идентификатор : 2
    Формат : AVC
    Формат/Информация : Advanced Video Codec
    Профиль формата : Main@L3
    Параметр CABAC формата : Да
    Параметр ReFrames формата : 1 кадр
    Параметр GOP формата : M=1, N=25
    Идентификатор кодека : V_MPEG4/ISO/AVC
    Продолжительность : 1 ч. 27 м.
    Вид битрейта : Постоянный
    Битрейт : 2195 Кбит/сек
    Ширина : 704 пикселя
    Высота : 528 пикселей
    Соотношение сторон : 4: 3
    Режим частоты кадров : Постоянный
    Частота кадров : 25, 000 кадров/сек
    Цветовое пространство : YUV
    Субдискретизация насыщенности : 4: 2: 0
    Битовая глубина : 8 бит
    Тип развёртки : Прогрессивная
    Бит/(Пиксели*Кадры) : 0.236
    Размер потока : 1, 31 Гбайт (90%)
    Default : Да
    Forced : Нет
    Аудио
    Идентификатор : 1
    Формат : AC-3
    Формат/Информация : Audio Coding 3
    Расширение режима : CM (complete main)
    Параметр Endianness формата : Big
    Идентификатор кодека : A_AC3
    Продолжительность : 1 ч. 27 м.
    Вид битрейта : Постоянный
    Битрейт : 192 Кбит/сек
    Каналы : 2 канала
    Расположение каналов : Front: L R
    Частота : 48, 0 КГц
    Частота кадров : 31, 250 кадров/сек (1536 spf)
    Битовая глубина : 32 бит
    Метод сжатия : С потерями
    Размер потока : 120 Мбайт (8%)
    Default : Да
    Forced : Нет


    Скриншоты для ознакомления




    Онлайн видео Лягушка в маске



    Лягушка в маске/Der Frosch mit der Maske (1959) DVDRip [Н.264] [MVO]
    загрузка...
    Рейтинг →
     (голосов: 1, оценка 4/5, голосовать можно 1 раз )

    Другие торренты по теме:

  • Белая лягушка / White Frog (2012) WEBRip
  • Nat Geo Wild: Лягушка-монстр / Monster Frog (2014) HDTVRip [H.264 / 720p] скачать через торрент бесплатно
  • В. Лёвшин, В. Гаршин | Лягушка-путешественница, Кот-хвастун (1959,1962 / 2014) [WavPack] скачать через торрент бесплатно
  • Всеволод Гаршин | Лягушка путешественница,Сказка о жабе и розе,attalea princeps (2016) [MP3]
  • Царевна-лягушка (1954) DVDRip
  • Лягушка-путешественница (1965) DVDRip
  • Принцесса-лягушка / Frog Kingdom (2013) BDRip 3D [H.264 / 1080p] [Вертикальная анаморфная стереопара] [hand made 16:9] [Line]
  • Принцесса-лягушка / Frog Kingdom (2013) BDRip 3D [H.264 / 1080p] [Вертикальная анаморфная стереопара] [Line]


    • Комментарии (0):

      Информация

      Информация

        Посетители, находящиеся в группе Гости, не могут оставлять комментарии в данной новости.

        ↓ Меню




        ↓ Опрос

        Вы добавили сайт в закладки?
        Да
        Нет


        Top 10 за месяц (Фильмы)