.
Авторизация | Регистрация
Хочешь лучшие торренты? Добавь свой email!
Добавить

Торрент скачать бесплатно

» » Пропавшие банкноты / Na kolejích ceká vrah (1970) DVDRip [Н.264] торрент скачать бесплатно




    Пропавшие банкноты / Na kolejích ceká vrah (1970) DVDRip [Н.264] торрент скачать бесплатно

    Опубликовал: Админ | Дата: 6-06-2017, 05:00 | Просмотров: 3

    Производство: Чехословакия
    Жанр: Детектив
    Режиссер: Йозеф Мах

    Актеры
    Иржи Совак, Радослав Брзобогаты, Яромир Ганзлик, Квета Фиалова, Богумил Шмида, Даниэла Коларова, Йозеф Блага, Йозеф Лангмилер, Ярослав Моучка, Ольдржих Велен

    Описание

    В поезде, который перевозил несколько миллионов крон новых денег, происходит взрыв. На месте происшествия милиция находит трупы и обгоревшие банкноты. Следствие возглавляет майор Калаш.

    Возраст: этот продукт не был классифицирован
    Рейтинг MPAA: этот продукт не был классифицирован
    Продолжительность: 01: 31: 18
    Качество видео: DVDRip
    Перевод: Дублированный (Советский дубляж)
    Субтитры: отсутствуют
    Видео: AVC/H.264, 576х432, ~1475 Kbps, ~ 0.237 bit/pixel
    Аудио 1: MP3, 1 ch, 128 Kbps, 48.0 kHz - Русский
    Аудио 2: MP3, 1 ch, 128 Kbps, 48.0 kHz - Чешский

    Общее
    Уникальный идентификатор : 192434683423623601090472377649163549796 (0x90C59268FBD0EE5F964A678380023C64)
    Полное имя : C: UsersМихаилVideosПропавшие банкноты (1970).mkv
    Формат : Matroska
    Версия формата : Version 4/Version 2
    Размер файла : 1, 11 Гбайт
    Продолжительность : 1 ч. 31 м.
    Режим общего битрейта : Постоянный
    Общий поток : 1734 Кбит/сек
    Дата кодирования : UTC 2017-06-02 15: 42: 52/UTC 2017-06-02 15: 42: 52
    Программа кодирования : Lavf56.36.100
    Библиотека кодирования : Lavf56.36.100/Lavf56.36.100
    Видео
    Идентификатор : 3
    Формат : AVC
    Формат/Информация : Advanced Video Codec
    Профиль формата : Main@L3
    Параметр CABAC формата : Да
    Параметр ReFrames формата : 2 кадра
    Параметр GOP формата : M=1, N=25
    Идентификатор кодека : V_MPEG4/ISO/AVC
    Продолжительность : 1 ч. 31 м.
    Вид битрейта : Постоянный
    Битрейт : 1475 Кбит/сек
    Ширина : 576 пикселей
    Высота : 432 пикселя
    Соотношение сторон : 4: 3
    Режим частоты кадров : Постоянный
    Частота кадров : 25, 000 кадров/сек
    Цветовое пространство : YUV
    Субдискретизация насыщенности : 4: 2: 0
    Битовая глубина : 8 бит
    Тип развёртки : Прогрессивная
    Бит/(Пиксели*Кадры) : 0.237
    Размер потока : 943 Мбайт (83%)
    Default : Да
    Forced : Нет
    Аудио #1
    Идентификатор : 1
    Формат : MPEG Audio
    Версия формата : Version 1
    Профиль формата : Layer 3
    Идентификатор кодека : A_MPEG/L3
    Идентификатор кодека/Подсказка : MP3
    Продолжительность : 1 ч. Самое интересное в это истории, что об этом Халк ничего не знал. 31 м.
    Вид битрейта : Постоянный
    Битрейт : 128 Кбит/сек
    Каналы : 1 канал
    Частота : 48, 0 КГц
    Метод сжатия : С потерями
    Размер потока : 83, 6 Мбайт (7%)
    Default : Да
    Forced : Нет
    Аудио #2
    Идентификатор : 2
    Формат : MPEG Audio
    Версия формата : Version 1
    Профиль формата : Layer 3
    Идентификатор кодека : A_MPEG/L3
    Идентификатор кодека/Подсказка : MP3
    Продолжительность : 1 ч. 31 м.
    Вид битрейта : Постоянный
    Битрейт : 128 Кбит/сек
    Каналы : 1 канал
    Частота : 48, 0 КГц
    Метод сжатия : С потерями
    Размер потока : 83, 6 Мбайт (7%)
    Библиотека кодирования : LAME3.97
    Default : Да
    Forced : Нет


    Скриншоты для ознакомления




    Онлайн видео Пропавшие банкноты



    Пропавшие банкноты/Na kolejích ceká vrah (1970) DVDRip [Н.264]
    загрузка...
    Рейтинг →
     (голосов: 1, оценка 4/5, голосовать можно 1 раз )

    Другие торренты по теме:

  • Gekijouban K: Missing Kings | Проект Кей: Пропавшие короли [2014, Movie] BDrip 1080p raw скачать через торрент бесплатно
  • Андрей Таманцев | Пропавшие без вести (2015) [MP3] скачать через торрент бесплатно
  • Gekijouban K: Missing Kings / Проект Кей: Пропавшие короли [2014, Movie] BDRip 1080p Raw + rus скачать через торрент бесплатно
  • Rite of Passage 4: The Lost Tides / Обряд посвящения 4: Пропавшие в море (2015) [Ru] Unofficial [Collectors Edition / Коллекционное издание] скачать через торрент бесплатно
  • Пропавшие миллионы / Этот грязный негодяй Шейм / A Low Down Dirty Shame (1994) WEB-DLRip [H.264] скачать через торрент бесплатно
  • Анатолий Клесов | Евреи и пуштуны Афганистана. Пропавшие колена Израилевы: история, политика и ДНК-генеалогия (2015) [PDF]
  • Альбина Нури | Пропавшие в раю (2017) [FB2]


    • Комментарии (0):

      Информация

      Информация

        Посетители, находящиеся в группе Гости, не могут оставлять комментарии в данной новости.

        ↓ Меню




        ↓ Опрос

        Вы добавили сайт в закладки?
        Да
        Нет


        Top 10 за месяц (Фильмы)