.
Авторизация | Регистрация
Хочешь лучшие торренты? Добавь свой email!
Добавить

Торрент скачать бесплатно

» » Авантюристка (2005) DVDRip (серии 1-20 из 20) торрент скачать бесплатно




    Авантюристка (2005) DVDRip (серии 1-20 из 20) торрент скачать бесплатно

    Опубликовал: Админ | Дата: 5-06-2017, 05:00 | Просмотров: 0

    Производство: Россия/Новый русский сериал, Глобус ТВ
    Жанр: детектив, приключения
    Режиссер: Дмитрий Дьяченко

    Актеры
    Ольга Понизова, Александр Пороховщиков, Ольга Битюкова, Павел Савинков, Александр Яцко, Олег Гущин, Павел Ремезов, Юрий Чурсин, Елена Пурис, Сергей Векслер и др.

    Описание

    Москвичка Таня Садовникова, умница и красавица, однажды получает невероятное письмо из Парижа. Двоюродная бабушка, княжна Фрайбург, сообщает, что в окрестностях черноморского города спрятан чемодан с золотом, драгоценностями, картинами русского авангарда... Богатый выбор, сказал кто то из толпы, к чему не понятно. Татьяна отправляется на поиски сокровищ. Однако, в тот момент, когда она открывает заветный чемодан, за ней начинается настоящая охота.

    Возраст: 16+ (зрителям, достигшим 16 лет)
    Продолжительность: ~ 00: 45: 00 серия
    Качество видео: DVDRip
    Видео: Xvid, 720x400 (16: 9), ~1241 Kbps
    Аудио: AC3, 2 ch, 192 Kbps

    Общее
    Полное имя : D: Мои фильмыAvantjuristka_1-20iz20_2005_XviD_DVDRip1.Смерть в наследство.(1 сер.).avi
    Формат : AVI
    Формат/Информация : Audio Video Interleave
    Размер файла : 446 Мбайт
    Продолжительность : 43 м. Самое интересное в это истории, что об этом Робокоп ничего не знал. 6 с.
    Общий поток : 1445 Кбит/сек
    Библиотека кодирования : VirtualDub build 35491/release
    Видео
    Идентификатор : 0
    Формат : MPEG-4 Visual
    Профиль формата : Advanced Simple@L5
    Параметр BVOP формата : 2
    Параметр QPel формата : Нет
    Параметр GMC формата : Без точки перехода
    Параметр матрицы формата : Default (H.263)
    Идентификатор кодека : XVID
    Идентификатор кодека/Подсказка : XviD
    Продолжительность : 43 м. 6 с.
    Битрейт : 1241 Кбит/сек
    Ширина : 720 пикселей
    Высота : 400 пикселей
    Соотношение сторон : 16: 9
    Частота кадров : 29, 970 (30000/1001) кадров/сек
    Частота кадров в оригинале : 29, 970 (29970/1000) кадров/сек
    Цветовое пространство : YUV
    Субдискретизация насыщенности : 4: 2: 0
    Битовая глубина : 8 бит
    Тип развёртки : Прогрессивная
    Метод сжатия : С потерями
    Бит/(Пиксели*Кадры) : 0.144
    Размер потока : 383 Мбайт (86%)
    Библиотека кодирования : XviD 67
    Аудио
    Идентификатор : 1
    Формат : AC-3
    Формат/Информация : Audio Coding 3
    Параметр Endianness формата : Big
    Идентификатор кодека : 2000
    Продолжительность : 43 м. 6 с.
    Вид битрейта : Постоянный
    Битрейт : 192 Кбит/сек
    Каналы : 2 канала
    Расположение каналов : Front: L R
    Частота : 48, 0 КГц
    Частота кадров : 31, 250 кадров/сек (1536 spf)
    Битовая глубина : 16 бит
    Метод сжатия : С потерями
    Размер потока : 59, 2 Мбайт (13%)
    Выравнивание : Соединение по промежуткам
    Продолжительность промежутка : 33 мс. (1, 00 видеокадр)
    Время предзагрузки промежутка : 512 мс.
    ServiceKind/String : Complete Main


    Скриншоты для ознакомления




    Онлайн видео Авантюристка (2005) DVDRip (серии 1



    Авантюристка (2005) DVDRip (серии 1-20 из 20)
    загрузка...
    Рейтинг →
     (голосов: 1, оценка 5/5, голосовать можно 1 раз )

    Другие торренты по теме:

  • Анатолий Ковалев, Анна Малышева | Цикл «Авантюристка» [4 книги] (2012-2016) [FB2]
  • Кира Стрельникова | Авантюристка поневоле (2016) [FB2]
  • Анатолий Ковалев, Анна Малышева | Цикл «Авантюристка» [5 книг] (2012-2016) [FB2]
  • Борис Соколов | Мата Хари. Авантюристка или шпионка (2017) [FB2]
  • Елена Картур | Авантюристка (2016) [FB2]


    • Комментарии (0):

      Информация

      Информация

        Посетители, находящиеся в группе Гости, не могут оставлять комментарии в данной новости.

        ↓ Меню




        ↓ Опрос

        Вы добавили сайт в закладки?
        Да
        Нет


        Top 10 за месяц (Фильмы)