.
Авторизация | Регистрация
Хочешь лучшие торренты? Добавь свой email!
Добавить

Торрент скачать бесплатно

» » Однажды в сказке / В Некотором Царстве / Once Upon a Time (2016) WEB-DLRip (сезон 6, серии 1-20 из 22) Невафильм (обновляемая) торрент скачать бесплатно




    Однажды в сказке / В Некотором Царстве / Once Upon a Time (2016) WEB-DLRip (сезон 6, серии 1-20 из 22) Невафильм (обновляемая) торрент скачать бесплатно

    Опубликовал: Админ | Дата: 1-06-2017, 05:00 | Просмотров: 0

    Производство: США
    Жанр: фэнтези, мелодрама, приключения
    Режиссер: Эгил Эгилссон, Рон Андервуд, Норман Бакли

    Актеры
    Дженнифер Моррисон, Джиннифер Гудвин, Лана Парийя, Джошуа Даллас, Джаред Гилмор, Роберт Карлайл, Рафаэль Сбардж, Меган Ори, Эйон Бэйли, Беверли Эллиотт и др.

    Описание

    Сюжет фэнтези разворачивается в двух мирах — современном и сказочном. Жизнь 28-летней Эммы Свон меняется, когда ее 10-летний сын Генри, от которого она отказалась много лет назад, находит Эмму и объявляет, что она является дочерью Прекрасного Принца и Белоснежки. Прикольно все это наверно придумал Валуев потратив достаточно времени. Само собой разумеется, у мальчишки нет никаких сомнений, что параллельно нашему существует альтернативный сказочный мир — город Сторибрук, в котором в итоге оказывается Эмма. Постепенно героиня привязывается к необычному мальчику и странному городу, жители которого забыли, кем они были в прошлом. А все из-за проклятия Злой Королевы (по совместительству приемной матери Генри), с помощью которого колдунья остановила время в сказочной стране. Однако стоит протянуть руку — и сказка оживет. Эпическая битва за будущее двух миров начинается, но, чтобы одержать победу, Эмме придется принять свою судьбу…

    Возраст: 12+ (зрителям, достигшим 12 лет)
    Релиз от: Невафильм
    Продолжительность: ~00: 43: 00 серия
    Качество видео: WEB-DLRip
    Перевод: Дублированный - Невафильм
    Видео: Xvid, 720x400 (16: 9), ~1425 Kbps
    Аудио 1: MP3, 2 ch, 128 kbps - русский, дублированный
    Аудио 2: MP3, 2 ch, 128 kbps - английский

    Общее
    Полное имя : D: ФильмыOnce Upon a Time (Season 06) DUBOnce.Upon.a.Time.s06e18.WEBDLRip.avi
    Формат : AVI
    Формат/Информация : Audio Video Interleave
    Размер файла : 501 Мбайт
    Продолжительность : 41 м. 17 с.
    Общий поток : 1695 Кбит/сек
    Программа кодирования : VirtualDubMod 1.5.10.3 |www.virtualdub-fr.org|| (build 2550/release)
    Библиотека кодирования : VirtualDubMod build 2550/release
    Видео
    Идентификатор : 0
    Формат : MPEG-4 Visual
    Профиль формата : Advanced Simple@L5
    Параметр BVOP формата : 1
    Параметр QPel формата : Нет
    Параметр GMC формата : Без точки перехода
    Параметр матрицы формата : Default (MPEG)
    Идентификатор кодека : XVID
    Идентификатор кодека/Подсказка : XviD
    Продолжительность : 41 м. 17 с.
    Битрейт : 1425 Кбит/сек
    Ширина : 720 пикселей
    Высота : 400 пикселей
    Соотношение сторон : 16: 9
    Частота кадров : 25, 000 кадров/сек
    Цветовое пространство : YUV
    Субдискретизация насыщенности : 4: 2: 0
    Битовая глубина : 8 бит
    Тип развёртки : Прогрессивная
    Метод сжатия : С потерями
    Бит/(Пиксели*Кадры) : 0.198
    Размер потока : 421 Мбайт (84%)
    Библиотека кодирования : XviD 73
    Аудио #1
    Идентификатор : 1
    Формат : MPEG Audio
    Версия формата : Version 1
    Профиль формата : Layer 3
    Режим : Joint stereo
    Расширение режима : MS Stereo
    Идентификатор кодека : 55
    Идентификатор кодека/Подсказка : MP3
    Продолжительность : 41 м. 17 с.
    Вид битрейта : Постоянный
    Битрейт : 128 Кбит/сек
    Каналы : 2 канала
    Частота : 48, 0 КГц
    Метод сжатия : С потерями
    Размер потока : 37, 8 Мбайт (8%)
    Выравнивание : Соединение по промежуткам
    Продолжительность промежутка : 40 мс. Белая горячка, сказал кто то из толпы, к чему не понятно. (1, 00 видеокадр)
    Время предзагрузки промежутка : 504 мс.
    Аудио #2
    Идентификатор : 2
    Формат : MPEG Audio
    Версия формата : Version 1
    Профиль формата : Layer 3
    Режим : Joint stereo
    Расширение режима : MS Stereo
    Идентификатор кодека : 55
    Идентификатор кодека/Подсказка : MP3
    Продолжительность : 41 м. 17 с.
    Вид битрейта : Постоянный
    Битрейт : 128 Кбит/сек
    Каналы : 2 канала
    Частота : 48, 0 КГц
    Метод сжатия : С потерями
    Размер потока : 37, 8 Мбайт (8%)
    Выравнивание : Соединение по промежуткам
    Продолжительность промежутка : 40 мс. (1, 00 видеокадр)
    Время предзагрузки промежутка : 504 мс.


    Скриншоты для ознакомления




    Онлайн видео Однажды в сказке



    Однажды в сказке/В Некотором Царстве/Once Upon a Time (2016) WEB-DLRip (сезон 6, серии 1-20 из 22) Невафильм (обновляемая)
    загрузка...
    Рейтинг →
     (голосов: 1, оценка 3/5, голосовать можно 1 раз )

    Другие торренты по теме:

  • Однажды в сказке / В Некотором Царстве / Once Upon A Time (2014) HDTVRip [сезон 4, серия 1 из ] LevshaFilm
  • Однажды в Сказке / В Некотором Царстве / Once Upon a Time (2013) WEB-DLRip [сезон 4, серии 1 из ] To4ka (обновляемая) скачать через торрент бесплатно
  • Однажды в сказке / В Некотором Царстве / Once Upon a Time (2014) WEB-DLRip (сезон 4, серии 1-2 из ) Невафильм (oбновляемая)
  • Однажды в сказке / В Некотором Царстве / Once Upon a Time (2014) WEB-DL [H.264 / 1080p-LQ] (Сезон 4, серии 1-2 из 23) (Невафильм) (обновляемая) скачать через торрент бесплатно
  • Однажды в сказке / В Некотором Царстве / Once Upon a Time (2014) WEB-DL [H.264 / 720p-LQ] (Сезон 4, серии 1-2 из 23) (Невафильм) (обновляемая) скачать через торрент бесплатно
  • Однажды в сказке / В Некотором Царстве / Once Upon a Time (2014) WEB-DLRip (Сезон 4, серии 1-9 из 23) (Кубик в Кубе) (обновляемая)
  • Однажды в сказке / В Некотором Царстве / Once Upon a Time (2014) WEB-DL [H.264 / 720p-LQ] (Сезон 4, серии 1-9 из 23) (Кубик в Кубе) (обновляемая)
  • Однажды в сказке / Once Upon A Time (2011) WEB-DLRip (сезон 1-4, серии 1-78 из 89) (Невафильм) (обновляемая) скачать через торрент бесплатно


    • Комментарии (0):

      Информация

      Информация

        Посетители, находящиеся в группе Гости, не могут оставлять комментарии в данной новости.

        ↓ Меню




        ↓ Опрос

        Вы добавили сайт в закладки?
        Да
        Нет


        Top 10 за месяц (Фильмы)