.
Авторизация | Регистрация
Хочешь лучшие торренты? Добавь свой email!
Добавить

Торрент скачать бесплатно

» » Карточный домик / House of Cards (2017) WEBRip [H.264 / 1080p] (сезон 5, серии 1-6 из 13) Пифагор (обновляемая) торрент скачать бесплатно




    Карточный домик / House of Cards (2017) WEBRip [H.264 / 1080p] (сезон 5, серии 1-6 из 13) Пифагор (обновляемая) торрент скачать бесплатно

    Опубликовал: Админ | Дата: 1-06-2017, 05:00 | Просмотров: 0

    Производство: США/Media Rights Capital (MRC), Panic Pictures (II), Trigger Street Productions
    Жанр: драма
    Режиссер: Джеймс Фоули, Робин Райт, Джон Дэвид Коулз

    Актеры
    Кевин Спейси, Робин Райт, Кейт Мара, Кори Столл, Майкл Келли, Сакина Джэффри, Нэйтан Дарроу, Махершала Али, Дерек Сесил, Ламонт Истер и др.

    Описание

    Продолжение многосерийной политической драмы.
    Фрэнк Андервуд проигрывает в голосах своему оппоненту Конвею в предвыборной гонке. Клэр Андервуд все это время находилась у матери, где у нее была интрижка с Томом Йейтсом. Спецслужбы выслеживают главу террористической организации, после чего в заложники захватывают троих американцев. Террорист идет на переговоры с Клэр, удается обменять двоих американцев взамен на его должность в иракском правительстве. Но в СМИ происходит утечка видео, на котором казнят одного из заложников. Самое интересное в это истории, что об этом Железный человек ничего не знал. Андервуду ничего не остается, как объявить войну террористам. Выборы президента США через три недели...

    Возраст: 18+ (зрителям, достигшим 18 лет)
    Релиз от: qqss44
    Продолжительность: ~00: 55: 00 серия
    Качество видео: WEBRip
    Перевод: Многоголосый закадровый, профессиональный -студия Пифагор по заказу Amedia
    Субтитры: английские
    Видео: H.264/AVC, 1920x960, ~8286 kbps
    Аудио 1: AC-3, 48, 0 kHz, 2 ch, 192 kbps — русский, многоголосый закадровый
    Аудио 2: AC-3, 48, 0 kHz, 6 ch, 384 kbps — английский

    Общее
    Уникальный идентификатор : 170382067542575241202390427280685441426 (0x802E64808F9EB9049DDD5D1E4868A192)
    Полное имя : D: Карточный домик (сезон любимого сериала 5) House of Cards (2017) WEBRip 1080p - AmediaHouse.of.Cards.S05E01.HD1080p.Amedia.(qqss44).mkv
    Формат : Matroska
    Версия формата : Version 2
    Размер файла : 3, 50 Гбайт
    Продолжительность : 55 м. 22 с.
    Общий поток : 9041 Кбит/сек
    Дата кодирования : UTC 2017-05-31 08: 59: 33
    Программа кодирования : mkvmerge v5.8.0 (\'No Sleep/Pillow\') built on Sep 2 2012 15: 37: 04
    Библиотека кодирования : libebml v1.2.3 + libmatroska v1.3.0
    Видео
    Идентификатор : 1
    Формат : AVC
    Формат/Информация : Advanced Video Codec
    Профиль формата : High@L4.1
    Параметр CABAC формата : Да
    Параметр ReFrames формата : 4 кадра
    Идентификатор кодека : V_MPEG4/ISO/AVC
    Продолжительность : 55 м. 22 с.
    Битрейт : 8286 Кбит/сек
    Ширина : 1920 пикселей
    Высота : 960 пикселей
    Соотношение сторон : 2, 000
    Режим частоты кадров : Постоянный
    Частота кадров : 23, 976 (24000/1001) кадра/сек
    Цветовое пространство : YUV
    Субдискретизация насыщенности : 4: 2: 0
    Битовая глубина : 8 бит
    Тип развёртки : Прогрессивная
    Бит/(Пиксели*Кадры) : 0.187
    Размер потока : 3, 20 Гбайт (92%)
    Библиотека кодирования : x264 core 144 r2525 40bb568
    Настройки программы : cabac=1/ref=4/deblock=1: -3: -3/analyse=0x3: 0x133/me=umh/subme=10/psy=1/psy_rd=1.00: 0.00/mixed_ref=1/me_range=48/chroma_me=1/trellis=2/8x8dct=1/cqm=0/deadzone=21, 11/fast_pskip=0/chroma_qp_offset=-2/threads=12/lookahead_threads=2/sliced_threads=0/nr=0/decimate=0/interlaced=0/bluray_compat=0/constrained_intra=0/bframes=8/b_pyramid=2/b_adapt=2/b_bias=0/direct=3/weightb=1/open_gop=0/weightp=2/keyint=250/keyint_min=23/scenecut=40/intra_refresh=0/rc=crf/mbtree=0/crf=18.0/qcomp=0.60/qpmin=0/qpmax=69/qpstep=4/ip_ratio=1.30/pb_ratio=1.20/aq=3: 0.80
    Язык : English
    Default : Да
    Forced : Нет
    Аудио #1
    Идентификатор : 2
    Формат : AC-3
    Формат/Информация : Audio Coding 3
    Параметр Endianness формата : Big
    Идентификатор кодека : A_AC3
    Продолжительность : 55 м. 22 с.
    Вид битрейта : Постоянный
    Битрейт : 192 Кбит/сек
    Каналы : 2 канала
    Расположение каналов : Front: L R
    Частота : 48, 0 КГц
    Частота кадров : 31, 250 кадров/сек (1536 spf)
    Битовая глубина : 16 бит
    Метод сжатия : С потерями
    Размер потока : 76, 0 Мбайт (2%)
    Язык : Russian
    ServiceKind/String : Complete Main
    Default : Да
    Forced : Нет
    Аудио #2
    Идентификатор : 3
    Формат : AC-3
    Формат/Информация : Audio Coding 3
    Параметр Endianness формата : Big
    Идентификатор кодека : A_AC3
    Продолжительность : 55 м. 22 с.
    Вид битрейта : Постоянный
    Битрейт : 384 Кбит/сек
    Каналы : 6 каналов
    Расположение каналов : Front: L C R, Side: L R, LFE
    Частота : 48, 0 КГц
    Частота кадров : 31, 250 кадров/сек (1536 spf)
    Битовая глубина : 16 бит
    Метод сжатия : С потерями
    Размер потока : 152 Мбайт (4%)
    Язык : English
    ServiceKind/String : Complete Main
    Default : Нет
    Forced : Нет
    Текст
    Идентификатор : 4
    Формат : UTF-8
    Идентификатор кодека : S_TEXT/UTF8
    Идентификатор кодека/Информация : UTF-8 Plain Text
    Язык : English
    Default : Нет
    Forced : Нет


    Скриншоты для ознакомления




    Онлайн видео Карточный домик



    Карточный домик/House of Cards (2017) WEBRip [H.264/1080p] (сезон 5, серии 1-6 из 13) Пифагор (обновляемая)
    загрузка...
    Рейтинг →
     (голосов: 1, оценка 4/5, голосовать можно 1 раз )

    Другие торренты по теме:

  • Карточный домик / House of Cards (2013) BDRip [H.264 / 720p-LQ] (Сезон 1, серии 1-13 из 13) (Первый)
  • Карточный домик / House of Cards (2015) WEBRip (сезон 3, серии 1-7 из 13) Первый канал (обновляемая) скачать через торрент бесплатно
  • В теме. Карточный домик (2015) SATRip скачать через торрент бесплатно
  • Карточный Домик / House of Cards (2013-2015) HDRip (сезон 1-3, серии 1-39 из 39) Первый канал скачать через торрент бесплатно
  • Карточный домик / House of Cards (2016) WEBRip (сезон 4, серии 1 из 13) Первый канал (обновляемая)
  • Карточный домик / House of Cards (2016) WEBRip [H.264 / 720p-LQ] (сезон 4, серии 1 из 13) Первый канал (обновляемая)
  • Карточный домик / House of Cards (2016) HDTVRip [H.264 / 1080p-LQ] (сезон 4, серии 1-13 из 13) Первый канал
  • Карточный Домик / House of Cards (2013-2016) WEB-DL 720p [H.264] (сезон 1-4, серии 1-52 из 52) (Первый Канал) [MP4] [Rus / Eng Sub]


    • Комментарии (0):

      Информация

      Информация

        Посетители, находящиеся в группе Гости, не могут оставлять комментарии в данной новости.

        ↓ Меню




        ↓ Опрос

        Вы добавили сайт в закладки?
        Да
        Нет


        Top 10 за месяц (Фильмы)