.
Авторизация | Регистрация
Хочешь лучшие торренты? Добавь свой email!
Добавить

Торрент скачать бесплатно

» » Карточный домик / House of Cards (2017) WEBRip [H.264 / 720p-LQ] (сезон 5, серия 1-3 из 13) BaibaKo (обновляемая) [AD] торрент скачать бесплатно




    Карточный домик / House of Cards (2017) WEBRip [H.264 / 720p-LQ] (сезон 5, серия 1-3 из 13) BaibaKo (обновляемая) [AD] торрент скачать бесплатно

    Опубликовал: Админ | Дата: 1-06-2017, 05:00 | Просмотров: 1

    Производство: США, Media Rights Capital (MRC), Panic Pictures (II), Trigger Street Productions
    Жанр: Драма
    Режиссер: Джеймс Фоули, Робин Райт, Джон Дэвид Коулз и др.

    Актеры
    Кевин Спейси, Робин Райт, Кейт Мара, Кори Столл, Майкл Келли, Сакина Джэффри, Нэйтан Дарроу, Махершала Али, Дерек Сесил, Ламонт Истер и др.

    Описание

    Амбициозный конгрессмен от Демократической партии Фрэнк Андервуд в обмен на обещание сделать его госсекретарём помогает Гаррету Уокеру стать президентом США. Однако после выборов глава администрации президента Линда Васкез сообщает Андервуду, что он не получит должность. Взбешенные предательством Фрэнк и его жена готовы пойти на всё, чтобы отомстить новоиспечённому президенту.

    Релиз от: BaibaKo
    Продолжительность: ~00: 55: 00 серия
    Качество видео: WEBRip
    Перевод: Многоголосый закадровый, профессиональный - BaibaKo
    Субтитры: отсутствуют
    Реклама: присутствуют аудио и видео вставки рекламы
    Видео: AVC/H.264, 1280x640, ~1641 Kbps
    Аудио 1: AC3, 6 ch, 384 Kbps - русский, многоголосый закадровый
    Аудио 2: AC3, 6 ch, 384 Kbps - английский

    Полное имя : /House.Of.Cards.s05e01.HD720p.WEBRip.Rus.Eng.BaibaKo.tv.mkv
    Формат : Matroska
    Версия формата : Version 4/Version 2
    Размер файла : 962 Мбайт
    Продолжительность : 55 м. 46 с.
    Общий поток : 2410 Кбит/сек
    Дата кодирования : UTC 2017-05-30 17: 55: 40
    Программа кодирования : mkvmerge v9.3.1 (\'Mask Machine\') 64bit
    Библиотека кодирования : libebml v1.3.4 + libmatroska v1.4.5
    Видео
    Идентификатор : 1
    Формат : AVC
    Формат/Информация : Advanced Video Codec
    Профиль формата : High@L3.1
    Параметр CABAC формата : Да
    Параметр ReFrames формата : 4 кадра
    Идентификатор кодека : V_MPEG4/ISO/AVC
    Продолжительность : 55 м. 45 с.
    Битрейт : 1641 Кбит/сек
    Ширина : 1280 пикселей
    Высота : 640 пикселей
    Соотношение сторон : 2, 000
    Режим частоты кадров : Постоянный
    Частота кадров : 23, 976 (24000/1001) кадра/сек
    Цветовое пространство : YUV
    Субдискретизация насыщенности : 4: 2: 0
    Битовая глубина : 8 бит
    Тип развёртки : Прогрессивная
    Бит/(Пиксели*Кадры) : 0.084
    Размер потока : 654 Мбайт (68%)
    Библиотека кодирования : x264 core 148 r2744 b97ae06
    Аудио #1
    Идентификатор : 2
    Формат : AC-3
    Формат/Информация : Audio Coding 3
    Параметр Endianness формата : Big
    Идентификатор кодека : A_AC3
    Продолжительность : 55 м. 46 с.
    Вид битрейта : Постоянный
    Битрейт : 384 Кбит/сек
    Каналы : 6 каналов
    Расположение каналов : Front: L C R, Side: L R, LFE
    Частота : 48, 0 КГц
    Частота кадров : 31, 250 кадров/сек (1536 spf)
    Битовая глубина : 16 бит
    Метод сжатия : С потерями
    Размер потока : 153 Мбайт (16%)
    Язык : Russian
    Service kind : Complete Main
    Default : Да
    Forced : Нет
    Аудио #2
    Идентификатор : 3
    Формат : AC-3
    Формат/Информация : Audio Coding 3
    Параметр Endianness формата : Big
    Идентификатор кодека : A_AC3
    Продолжительность : 55 м. 46 с.
    Вид битрейта : Постоянный
    Битрейт : 384 Кбит/сек
    Каналы : 6 каналов
    Расположение каналов : Front: L C R, Side: L R, LFE
    Частота : 48, 0 КГц
    Частота кадров : 31, 250 кадров/сек (1536 spf)
    Битовая глубина : 16 бит
    Метод сжатия : С потерями
    Размер потока : 153 Мбайт (16%)
    Язык : English
    Service kind : Complete Main
    Default : Нет
    Forced : Нет


    Скриншоты для ознакомления




    Онлайн видео Карточный домик



    Карточный домик/House of Cards (2017) WEBRip [H.264/720p-LQ] (сезон 5, серия 1-3 из 13) BaibaKo (обновляемая) [AD]
    загрузка...
    Рейтинг →
     (голосов: 1, оценка 4/5, голосовать можно 1 раз )

    Другие торренты по теме:

  • Карточный домик / House of Cards (2013) BDRip [H.264 / 720p-LQ] (Сезон 1, серии 1-13 из 13) (Первый)
  • Карточный домик / House of Cards (2015) WEBRip (сезон 3, серии 1-7 из 13) Первый канал (обновляемая) скачать через торрент бесплатно
  • В теме. Карточный домик (2015) SATRip скачать через торрент бесплатно
  • Карточный Домик / House of Cards (2013-2015) HDRip (сезон 1-3, серии 1-39 из 39) Первый канал скачать через торрент бесплатно
  • Карточный домик / House of Cards (2016) WEBRip (сезон 4, серии 1 из 13) Первый канал (обновляемая)
  • Карточный домик / House of Cards (2016) WEBRip [H.264 / 720p-LQ] (сезон 4, серии 1 из 13) Первый канал (обновляемая)
  • Карточный домик / House of Cards (2016) HDTVRip [H.264 / 1080p-LQ] (сезон 4, серии 1-13 из 13) Первый канал
  • Карточный Домик / House of Cards (2013-2016) WEB-DL 720p [H.264] (сезон 1-4, серии 1-52 из 52) (Первый Канал) [MP4] [Rus / Eng Sub]


    • Комментарии (0):

      Информация

      Информация

        Посетители, находящиеся в группе Гости, не могут оставлять комментарии в данной новости.

        ↓ Меню




        ↓ Опрос

        Вы добавили сайт в закладки?
        Да
        Нет


        Top 10 за месяц (Фильмы)