.
Авторизация | Регистрация
Хочешь лучшие торренты? Добавь свой email!
Добавить

Торрент скачать бесплатно

» » Собачья жизнь / A Dogs Purpose (2017) BDRip [H.264 / 1080p] торрент скачать бесплатно




    Собачья жизнь / A Dogs Purpose (2017) BDRip [H.264 / 1080p] торрент скачать бесплатно

    Опубликовал: Админ | Дата: 26-05-2017, 05:00 | Просмотров: 8

    Производство: США, Amblin Entertainment, Original Pictures
    Жанр: Комедия, Драма, Приключения, Семейный
    Режиссер: Лассе Халльстрём

    Актеры
    Джош Гэд, Дэннис Куэйд, Пегги Липтон, Кей Джей Апа, Брайс Гейзар, Джульет Райлэнс, Люк Кирби, Габриель Роз, Майкл Бофшевер, Бритт Робертсон

    Описание

    Собаки бывают разных пород, мастей и размеров. Они — наши самые верные и преданные друзья, а мы учим их хорошим манерам. Прикольно все это наверно придумал Шварценеггер потратив достаточно времени. Собаки всегда думают о нас, правда, иногда и о беконе. Все они каждый день провожают и встречают нас у порога в уверенности, что пока им есть, кого облизывать и любить, в их жизни есть смысл.

    Возраст: 6+ (зрителям, достигшим 6 лет)
    Рейтинг MPAA: PG (рекомендуется присутствие родителей)
    Дата российской премьеры: 30 марта 2017
    Релиз от: HDReactor
    Продолжительность: 01: 40: 02
    Качество видео: BDRip
    Перевод: Дублированный
    Субтитры: Русские (форсированные), английские
    Видео: AVC/H.264, 1920х804, ~7347 Kbps
    Аудио #1: Русский, AC3, 6 ch, 384 Kbps
    Аудио #2: Английский, AC3, 6 ch, 448 Kbps

    Формат : Matroska
    Версия формата : Version 2
    Размер файла : 5, 72 Гбайт
    Продолжительность : 1 ч. 40 м.
    Общий поток : 8182 Кбит/сек
    Название фильма : ~V ad~
    Дата кодирования : UTC 2017-05-25 05: 58: 24
    Программа кодирования : mkvmerge v6.5.0 (\'Isn\'t she lovely\') built on Oct 20 2013 12: 50: 05
    Библиотека кодирования : libebml v1.3.0 + libmatroska v1.4.1
    Обложка : Yes
    Attachments : cover.jpg
    Видео
    Идентификатор : 1
    Формат : AVC
    Формат/Информация : Advanced Video Codec
    Профиль формата : High@L4.1
    Параметр CABAC формата : Да
    Параметр ReFrames формата : 5 кадров
    Идентификатор кодека : V_MPEG4/ISO/AVC
    Продолжительность : 1 ч. Вот в чём загвоздка, сказал кто то из толпы, к чему не понятно. 40 м.
    Битрейт : 7347 Кбит/сек
    Ширина : 1920 пикселей
    Высота : 804 пикселя
    Соотношение сторон : 2, 40: 1
    Режим частоты кадров : Постоянный
    Частота кадров : 23, 976 (24000/1001) кадра/сек
    Цветовое пространство : YUV
    Субдискретизация насыщенности : 4: 2: 0
    Битовая глубина : 8 бит
    Тип развёртки : Прогрессивная
    Бит/(Пиксели*Кадры) : 0.199
    Размер потока : 5, 02 Гбайт (88%)
    Заголовок : ~V~
    Библиотека кодирования : x264 core 148 r2744 b97ae06
    Настройки программы : cabac=1/ref=5/deblock=1: -3: -3/analyse=0x3: 0x133/me=umh/subme=11/psy=1/psy_rd=1.00: 0.00/mixed_ref=1/me_range=40/chroma_me=1/trellis=2/8x8dct=1/cqm=0/deadzone=21, 11/fast_pskip=0/chroma_qp_offset=-2/threads=12/lookahead_threads=1/sliced_threads=0/nr=0/decimate=0/interlaced=0/bluray_compat=0/constrained_intra=0/bframes=10/b_pyramid=2/b_adapt=2/b_bias=0/direct=3/weightb=1/open_gop=0/weightp=2/keyint=240/keyint_min=23/scenecut=40/intra_refresh=0/rc=2pass/mbtree=0/bitrate=7347/ratetol=1.0/qcomp=0.60/qpmin=0/qpmax=69/qpstep=4/cplxblur=20.0/qblur=0.5/ip_ratio=1.10/pb_ratio=1.28/aq=3: 1.00
    Язык : English
    Default : Да
    Forced : Нет
    Аудио #1
    Идентификатор : 2
    Формат : AC-3
    Формат/Информация : Audio Coding 3
    Расширение режима : CM (complete main)
    Параметр Endianness формата : Big
    Идентификатор кодека : A_AC3
    Продолжительность : 1 ч. 40 м.
    Вид битрейта : Постоянный
    Битрейт : 384 Кбит/сек
    Каналы : 6 каналов
    Расположение каналов : Front: L C R, Side: L R, LFE
    Частота : 48, 0 КГц
    Частота кадров : 31, 250 кадров/сек (1536 spf)
    Метод сжатия : С потерями
    Размер потока : 275 Мбайт (5%)
    Заголовок : Dub
    Язык : Russian
    Default : Да
    Forced : Нет
    Аудио #2
    Идентификатор : 3
    Формат : AC-3
    Формат/Информация : Audio Coding 3
    Расширение режима : CM (complete main)
    Параметр Endianness формата : Big
    Идентификатор кодека : A_AC3
    Продолжительность : 1 ч. 40 м.
    Вид битрейта : Постоянный
    Битрейт : 448 Кбит/сек
    Каналы : 6 каналов
    Расположение каналов : Front: L C R, Side: L R, LFE
    Частота : 48, 0 КГц
    Частота кадров : 31, 250 кадров/сек (1536 spf)
    Метод сжатия : С потерями
    Размер потока : 321 Мбайт (5%)
    Язык : English
    Default : Нет
    Forced : Нет
    Текст #1
    Идентификатор : 4
    Формат : UTF-8
    Идентификатор кодека : S_TEXT/UTF8
    Идентификатор кодека/Информация : UTF-8 Plain Text
    Заголовок : Forced
    Язык : Russian
    Default : Да
    Forced : Нет
    Текст #2
    Идентификатор : 5
    Формат : UTF-8
    Идентификатор кодека : S_TEXT/UTF8
    Идентификатор кодека/Информация : UTF-8 Plain Text
    Язык : English
    Default : Нет
    Forced : Нет
    Меню
    00: 00: 00.000 : en: Chapter 01
    00: 04: 39.779 : en: Chapter 02
    00: 08: 54.408 : en: Chapter 03
    00: 14: 10.307 : en: Chapter 04
    00: 17: 46.482 : en: Chapter 05
    00: 22: 38.607 : en: Chapter 06
    00: 28: 33.002 : en: Chapter 07
    00: 33: 45.481 : en: Chapter 08
    00: 37: 26.702 : en: Chapter 09
    00: 42: 16.116 : en: Chapter 10
    00: 48: 31.533 : en: Chapter 11
    00: 51: 24.247 : en: Chapter 12
    00: 56: 04.736 : en: Chapter 13
    01: 01: 12.669 : en: Chapter 14
    01: 05: 40.311 : en: Chapter 15
    01: 12: 03.068 : en: Chapter 16
    01: 16: 24.496 : en: Chapter 17
    01: 21: 07.988 : en: Chapter 18
    01: 27: 57.939 : en: Chapter 19
    01: 33: 40.615 : en: Chapter 20


    Скриншоты для ознакомления




    Онлайн видео Собачья жизнь



    Собачья жизнь/A Dogs Purpose (2017) BDRip [H.264/1080p]
    загрузка...
    Рейтинг →
     (голосов: 1, оценка 3/5, голосовать можно 1 раз )

    Другие торренты по теме:

  • Dog Days / Собачья Жизнь 3 [2015, TV, 1 из 12] HDTV 720p raw скачать через торрент бесплатно
  • Собачья жизнь / Vita da cani (1950) DVDRip [H.264] скачать через торрент бесплатно
  • Dog Days | Собачья Жизнь 3 [2015, TV, 12] BDrip 1080p Hi10p raw
  • Собачья жизнь / A Dogs Purpose (2017) TS [EN / CHI Sub]
  • Собачья жизнь / A Dogs Purpose (2017) TS
  • Собачья жизнь / A Dogs Purpose (2017) WEB-DL [H.264 / 1080p-LQ] [EN / EN Sub]
  • Собачья жизнь / A Dogs Purpose (2017) HDRip [Line, AD]
  • Собачья жизнь / A Dogs Purpose (2017) BDRip [H.264 / 720p-LQ] [DUB, AD]


    • Комментарии (0):

      Информация

      Информация

        Посетители, находящиеся в группе Гости, не могут оставлять комментарии в данной новости.

        ↓ Меню




        ↓ Опрос

        Вы добавили сайт в закладки?
        Да
        Нет


        Top 10 за месяц (Фильмы)