.
Авторизация | Регистрация
Хочешь лучшие торренты? Добавь свой email!
Добавить

Торрент скачать бесплатно

» » Лондонский шпион / Шпион из Лондона / London Spy (2015) WEB-DLRip (сезон 1, серии 1-5 из 5) BaibaKo торрент скачать бесплатно




    Лондонский шпион / Шпион из Лондона / London Spy (2015) WEB-DLRip (сезон 1, серии 1-5 из 5) BaibaKo торрент скачать бесплатно

    Опубликовал: Админ | Дата: 25-05-2017, 05:00 | Просмотров: 0

    Производство: Великобритания/Working Title Television
    Жанр: триллер, драма, мелодрама, криминал, детектив
    Режиссер: Якоб Вербрюгген

    Актеры
    Джим Бродбент, Эдвард Холкрофт, Шарлотта Рэмплинг, Бен Уишоу, Пол Блэкуэлл, Зринка Цвитешич, Саманта Спиро, Ричард Каннингэм, Джозеф Алтин, Антония Кэмпбелл-Хьюджес и др.

    Описание

    События разворачиваются вокруг случайной романтической встречи двух парней из совершенно разных слоев общества. Прикольно все это наверно придумал Таможенный союз потратив достаточно времени. Один из них служит в Секретной разведывательной службе МИ-6, а другой полностью погружен в мир танца в юношеской клубной тусовке. Общительный, веселый, романтичный и легкомысленный Дэнни влюбляется в загадочного и гениального психопата Алекса. В тот момент, когда они оба понимают, что их отношения перерастают в настоящую любовь, Алекс внезапно исчезает. Неопытный Дэнни бросается на поиски друга в запутанном мире британской разведки и встает перед дилеммой: готов ли он продолжать двигаться вперед в поисках истины.

    Продолжительность: ~01: 00: 00 серия
    Качество видео: WEB-DLRip
    Перевод: Многоголосый закадровый, профессиональный -BaibaKo
    Видео: XviD, 720x400 (16: 9), ~1500 kbps
    Аудио 1: M3, 48, 0 kHz, 2 ch, 192 kbps — русский, многоголосый закадровый
    Аудио 2: MP3, 48, 0 kHz, 2 ch, 192 kbps — английский

    Общее
    Полное имя : D: Лондонский шпион (сезон любимого сериала 1) London Spy (2015) WEB-DLRip - BaibaKoLondon.Spy.S01E01.WEB-DLRip.Rus.Eng.DV.BaibaKo.avi
    Формат : AVI
    Формат/Информация : Audio Video Interleave
    Размер файла : 793 Мбайт
    Продолжительность : 1 ч. 2 м.
    Общий поток : 1776 Кбит/сек
    Название фильма : London.Spy.S01E01.WEB-DLRip.Rus.Eng.DV.BaibaKo/NNM-Club
    Программа кодирования : VirtualDubModRus 1.5.10.2 (build 2542/release)
    Библиотека кодирования : VirtualDubMod build 2542/release
    Видео
    Идентификатор : 0
    Формат : MPEG-4 Visual
    Профиль формата : Advanced Simple@L5
    Параметр BVOP формата : 2
    Параметр QPel формата : Нет
    Параметр GMC формата : Без точки перехода
    Параметр матрицы формата : Default (H.263)
    Идентификатор кодека : XVID
    Идентификатор кодека/Подсказка : XviD
    Продолжительность : 1 ч. 2 м.
    Битрейт : 1506 Кбит/сек
    Ширина : 720 пикселей
    Высота : 400 пикселей
    Соотношение сторон : 16: 9
    Частота кадров : 23, 976 (24000/1001) кадра/сек
    Цветовое пространство : YUV
    Субдискретизация насыщенности : 4: 2: 0
    Битовая глубина : 8 бит
    Тип развёртки : Прогрессивная
    Метод сжатия : С потерями
    Бит/(Пиксели*Кадры) : 0.218
    Размер потока : 673 Мбайт (85%)
    Заголовок : Rip by DriverV/NNM-Club
    Библиотека кодирования : XviD 64
    Аудио #1
    Идентификатор : 1
    Формат : MPEG Audio
    Версия формата : Version 1
    Профиль формата : Layer 3
    Режим : Joint stereo
    Расширение режима : MS Stereo
    Идентификатор кодека : 55
    Идентификатор кодека/Подсказка : MP3
    Продолжительность : 1 ч. 2 м.
    Вид битрейта : Постоянный
    Битрейт : 128 Кбит/сек
    Каналы : 2 канала
    Частота : 48, 0 КГц
    Метод сжатия : С потерями
    Размер потока : 57, 2 Мбайт (7%)
    Выравнивание : Соединение по промежуткам
    Продолжительность промежутка : 42 мс. О таком странном сюжете не догадывалась даже Ангела Меркель. (1, 00 видеокадр)
    Время предзагрузки промежутка : 504 мс.
    Аудио #2
    Идентификатор : 2
    Формат : MPEG Audio
    Версия формата : Version 1
    Профиль формата : Layer 3
    Режим : Joint stereo
    Расширение режима : MS Stereo
    Идентификатор кодека : 55
    Идентификатор кодека/Подсказка : MP3
    Продолжительность : 1 ч. 2 м.
    Вид битрейта : Постоянный
    Битрейт : 128 Кбит/сек
    Каналы : 2 канала
    Частота : 48, 0 КГц
    Метод сжатия : С потерями
    Размер потока : 57, 2 Мбайт (7%)
    Выравнивание : Соединение по промежуткам
    Продолжительность промежутка : 42 мс. (1, 00 видеокадр)
    Время предзагрузки промежутка : 504 мс.


    Скриншоты для ознакомления




    Онлайн видео Лондонский шпион



    Лондонский шпион/Шпион из Лондона/London Spy (2015) WEB-DLRip (сезон 1, серии 1-5 из 5) BaibaKo
    загрузка...
    Рейтинг →
     (голосов: 1, оценка 3/5, голосовать можно 1 раз )

    Другие торренты по теме:

  • Лондонский шпион / Шпион из Лондона / London Spy (2015) WEB-DLRip (сезон 1, серии 1 из 5) BaibaKo (обновляемая) скачать через торрент бесплатно
  • Лондонский шпион / London spy (2015) HDTVRip [H.264 / 720p-LQ] (сезон 1, cерии 1-5 из 5) Lord32x скачать через торрент бесплатно


    • Комментарии (0):

      Информация

      Информация

        Посетители, находящиеся в группе Гости, не могут оставлять комментарии в данной новости.

        ↓ Меню




        ↓ Опрос

        Вы добавили сайт в закладки?
        Да
        Нет


        Top 10 за месяц (Фильмы)