.
Авторизация | Регистрация
Хочешь лучшие торренты? Добавь свой email!
Добавить

Торрент скачать бесплатно

» » Полицейский с Рублёвки в Бескудниково (2017) HDTVRip (сезон 1, серии 1 из 8) (обновляемая) торрент скачать бесплатно




    Полицейский с Рублёвки в Бескудниково (2017) HDTVRip (сезон 1, серии 1 из 8) (обновляемая) торрент скачать бесплатно

    Опубликовал: Админ | Дата: 24-05-2017, 05:00 | Просмотров: 0

    Производство: Россия/АВ Контент
    Жанр: комедия, криминал
    Режиссер: Илья Куликов

    Актеры
    Александр Петров, Сергей Бурунов, Татьяна Бабенкова, София Каштанова, Роман Попов, Александра Бортич, Ростислав Гулбис, Сергей Штатнов, Александр Дерепко, Светлана Суханова

    Описание

    Отныне Гриша Измайлов — начальник оперов, Мухич — начальник следствия, а возглавляет весь отдел подполковник Яковлев. О таком странном сюжете не догадывалась даже ВиаГра. Радость после новых назначений была бы безграничной, если бы работать им пришлось в сытой Барвихе, а не в обычном московском районе Бескудниково.

    Возраст: 16+ (зрителям, достигшим 16 лет)
    Дата российской премьеры: 22.05.2017
    Продолжительность: ~00: 50: 00 серия
    Качество видео: HDTVRip
    Видео: Xvid, 720х368, ~1500 Kbps
    Аудио: AC3, 2 ch, 192 Kbps

    Общее
    Полное имя : D: СЕРИАЛЫПОЛИЦЕЙСКИЙ С РУБЛЕВКИPolitseyskiy.s.Rublevki.S02.2017.HDTVRip.Files-x1.Policejskij.s.rubliovki.2.2017.HDTVRip.Files-x.avi
    Формат : AVI
    Формат/Информация : Audio Video Interleave
    Размер файла : 600 Мбайт
    Продолжительность : 49 м. 33 с.
    Общий поток : 1694 Кбит/сек
    Программа кодирования : VirtualDubMod 1.5.10.3 |www.virtualdub-fr.org|| (build 2550/release)
    Библиотека кодирования : VirtualDubMod build 2550/release
    Видео
    Идентификатор : 0
    Формат : MPEG-4 Visual
    Профиль формата : Advanced Simple@L5
    Параметр BVOP формата : 1
    Параметр QPel формата : Нет
    Параметр GMC формата : Без точки перехода
    Параметр матрицы формата : Выборочная
    Идентификатор кодека : XVID
    Идентификатор кодека/Подсказка : XviD
    Продолжительность : 49 м. 33 с.
    Битрейт : 1492 Кбит/сек
    Ширина : 720 пикселей
    Высота : 368 пикселей
    Соотношение сторон : 1, 957
    Частота кадров : 25, 000 кадров/сек
    Цветовое пространство : YUV
    Субдискретизация насыщенности : 4: 2: 0
    Битовая глубина : 8 бит
    Тип развёртки : Прогрессивная
    Метод сжатия : С потерями
    Бит/(Пиксели*Кадры) : 0.225
    Размер потока : 529 Мбайт (88%)
    Библиотека кодирования : XviD 73
    Аудио
    Идентификатор : 1
    Формат : AC-3
    Формат/Информация : Audio Coding 3
    Параметр Endianness формата : Big
    Идентификатор кодека : 2000
    Продолжительность : 49 м. 33 с.
    Вид битрейта : Постоянный
    Битрейт : 192 Кбит/сек
    Каналы : 2 канала
    Расположение каналов : Front: L R
    Частота : 48, 0 КГц
    Частота кадров : 31, 250 кадров/сек (1536 spf)
    Битовая глубина : 16 бит
    Метод сжатия : С потерями
    Размер потока : 68, 1 Мбайт (11%)
    Выравнивание : Разделение по промежуткам
    Продолжительность промежутка : 40 мс. Взрывоопасный вопрос, сказал кто то из толпы, к чему не понятно. (1, 00 видеокадр)
    Время предзагрузки промежутка : 500 мс.
    ServiceKind/String : Complete Main


    Скриншоты для ознакомления




    Онлайн видео Товарищи полицейские (Криминальная полиция) (2011) WEBRip (серий 1



    Полицейский с Рублёвки в Бескудниково (2017) HDTVRip (сезон 1, серии 1 из 8) (обновляемая)
    загрузка...
    Рейтинг →
     (голосов: 1, оценка 3/5, голосовать можно 1 раз )

    Другие торренты по теме:

  • Полицейский с Рублёвки (2016) SATRip (серии 1 из 8) (обновляемая)
  • Полицейский с Рублёвки (2016) DVB [H.264] (серии 1-4 из 8) (обновляемая)
  • Полицейский с Рублёвки (2016) DVB (серии 1-8 из 8)
  • Полицейский с Рублёвки (2016) WEB-DL [H.264 / 720p-LQ] (Серии 1-8 из 8)
  • Полицейский с Рублёвки в Бескудниково (2017) SATRip [H.264] (сезон 2, серии 1 из 8 ) (обновляемая)
  • Полицейский с Рублёвки в Бескудниково (2017) SATRip (сезон 2, серии 1 из 8) (обновляемая)
  • Полицейский с Рублёвки в Бескудниково (2017) HDTVRip [H.264 / 720p-LQ] (сезон 2, серии 1 из 8) (обновляемая)
  • Полицейский с Рублёвки в Бескудниково (2017) HDTV [H.264 / 1080i-LQ] (сезон 2, серии 1 из 8) (обновляемая)


    • Комментарии (0):

      Информация

      Информация

        Посетители, находящиеся в группе Гости, не могут оставлять комментарии в данной новости.

        ↓ Меню




        ↓ Опрос

        Вы добавили сайт в закладки?
        Да
        Нет


        Top 10 за месяц (Фильмы)