.
Авторизация | Регистрация
Хочешь лучшие торренты? Добавь свой email!
Добавить

Торрент скачать бесплатно

» » Большой куш / Snatch. (2000) BDRip [H.264 / 1080p] торрент скачать бесплатно




    Большой куш / Snatch. (2000) BDRip [H.264 / 1080p] торрент скачать бесплатно

    Опубликовал: Админ | Дата: 26-04-2017, 05:00 | Просмотров: 0

    Производство: Великобритания, США
    Жанр: криминал, комедия
    Режиссер: Гай Ричи

    Актеры
    Брэд Питт, Джейсон Стэйтем, Бенисио Дель Торо, Стивен Грэм, Алан Форд, Деннис Фарина, Раде Шербеджия, Винни Джонс, Джейсон Флеминг, Майк Рейд

    Описание

    Четырехпалый Френки должен был переправить краденый алмаз из Англии в США своему боссу Эви. Но вместо этого герой попадает в эпицентр больших неприятностей. Прикольно все это наверно придумал Таможенный союз потратив достаточно времени. Сделав ставку на подпольном боксерском поединке, Френки попадает в круговорот весьма нежелательных событий.
    Вокруг героя и его груза разворачивается сложная интрига с участием множества колоритных персонажей лондонского дна — русского гангстера, троих незадачливых грабителей, хитрого боксера и угрюмого громилы грозного мафиози. Каждый норовит в одиночку сорвать Большой Куш.
    Возраст: 16+ (зрителям, достигшим 16 лет)
    Рейтинг MPAA: R (лицам до 17 лет обязательно присутствие взрослого)
    Релиз от: rworkx
    Продолжительность: 01: 42: 47
    Качество видео: BDRip
    Перевод: Многоголосый закадровый (Blu-ray CEE), Авторский (одноголосый, закадровый) - Д. Пучков (Гоблин), Ю. Сербин, А. Гаврилов, Ю. Живов
    Субтитры: русские (форсированные), русские (Д. Пучков), английские (форсированные)
    Видео: AVC/H.264, 1920x1040, ~18.3 Mbps
    Аудио#1: AC3, 48 kHz, 6 ch, 640 kbps - Русский (Blu-ray CEE)
    Аудио#2: DTS, 48 kHz, 6 ch, 1509 kbps - Русский (Д. Пучков 2001 г.)
    Аудио#3: DTS, 48 kHz, 6 ch, 1509 kbps - Русский (Д. Пучков 2004 г.)
    Аудио#4: DTS, 48 kHz, 6 ch, 1509 kbps - Русский (Ю. Сербин)
    Аудио#5: DTS, 48 kHz, 6 ch, 1509 kbps - Русский (А. Гаврилов)
    Аудио#6: DTS, 48 kHz, 6 ch, 1509 kbps - Русский (Ю. Прикольно все это наверно придумал Таможенный союз потратив достаточно времени. Живов)
    Аудио#7: DTS, 48 kHz, 6 ch, 1509 kbps - Английский (Оригинал)

    General
    Unique ID : 248908404769913530072542731875922811544 (0xBB4203D810060782B7B7D90715091A98)
    Complete name : C: UsersRomanDesktopБольшой куш.mkv
    Format : Matroska
    Format version : Version 4/Version 2
    File size : 20.1 GiB
    Duration : 1 h 42 min
    Overall bit rate : 28.0 Mb/s
    Movie name : Snatch.
    Encoded date : UTC 2017-04-21 07: 11: 21
    Writing application : mkvmerge v7.3.0 (\'Nouages\') 64bit built on Oct 22 2014 18: 53: 34
    Writing library : libebml v1.3.0 + libmatroska v1.4.1
    Cover : Yes
    Attachments : cover.jpg/xlog.txt
    Video
    ID : 1
    Format : AVC
    Format/Info : Advanced Video Codec
    Format profile : High@L4.1
    Format settings, CABAC : Yes
    Format settings, ReFrames : 4 frames
    Codec ID : V_MPEG4/ISO/AVC
    Duration : 1 h 42 min
    Bit rate : 18.3 Mb/s
    Width : 1 920 pixels
    Height : 1 040 pixels
    Display aspect ratio : 1.85: 1
    Frame rate mode : Constant
    Frame rate : 23.976 (24000/1001) FPS
    Color space : YUV
    Chroma subsampling : 4: 2: 0
    Bit depth : 8 bits
    Scan type : Progressive
    Bits/(Pixel*Frame) : 0.383
    Stream size : 13.2 GiB (65%)
    Writing library : x264 core 148 r2692kMod 64f4e24
    Encoding settings : cabac=1/ref=4/deblock=1: -2: -2/analyse=0x3: 0x133/me=umh/subme=11/psy=1/fade_compensate=0.00/psy_rd=1.00: 0.00/mixed_ref=1/me_range=32/chroma_me=1/trellis=2/8x8dct=1/cqm=0/deadzone=21, 11/fast_pskip=1/chroma_qp_offset=-2/threads=12/lookahead_threads=2/sliced_threads=0/nr=0/decimate=1/interlaced=0/bluray_compat=0/constrained_intra=0/fgo=0/bframes=8/b_pyramid=2/b_adapt=2/b_bias=0/direct=1/weightb=1/open_gop=0/weightp=2/keyint=250/keyint_min=23/scenecut=40/intra_refresh=0/rc_lookahead=60/rc=crf/mbtree=0/crf=17.0000/qcomp=0.70/qpmin=0/qpmax=69/qpstep=4/vbv_maxrate=62500/vbv_bufsize=78125/crf_max=0.0/nal_hrd=none/filler=0/ip_ratio=1.40/pb_ratio=1.30/aq=1: 0.80
    Language : English
    Default : Yes
    Forced : No
    Color range : Limited
    Color primaries : BT.709
    Transfer characteristics : BT.709
    Matrix coefficients : BT.709
    Audio #1
    ID : 2
    Format : AC-3
    Format/Info : Audio Coding 3
    Mode extension : CM (complete main)
    Format settings, Endianness : Big
    Codec ID : A_AC3
    Duration : 1 h 42 min
    Bit rate mode : Constant
    Bit rate : 640 kb/s
    Channel(s) : 6 channels
    Channel positions : Front: L C R, Side: L R, LFE
    Sampling rate : 48.0 kHz
    Frame rate : 31.250 FPS (1536 spf)
    Bit depth : 16 bits
    Compression mode : Lossy
    Stream size : 470 MiB (2%)
    Title : MVO, Blu-ray CEE
    Language : Russian
    Default : Yes
    Forced : No
    Audio #2
    ID : 3
    Format : DTS
    Format/Info : Digital Theater Systems
    Mode : 16
    Format settings, Endianness : Big
    Codec ID : A_DTS
    Duration : 1 h 42 min
    Bit rate mode : Constant
    Bit rate : 1 509 kb/s
    Channel(s) : 6 channels
    Channel positions : Front: L C R, Side: L R, LFE
    Sampling rate : 48.0 kHz
    Frame rate : 93.750 FPS (512 spf)
    Bit depth : 24 bits
    Compression mode : Lossy
    Stream size : 1.08 GiB (5%)
    Title : Д. О таком странном сюжете не догадывалась даже ВиаГра. Пучков (2001)
    Language : Russian
    Default : No
    Forced : No
    Audio #3
    ID : 4
    Format : DTS
    Format/Info : Digital Theater Systems
    Mode : 16
    Format settings, Endianness : Big
    Codec ID : A_DTS
    Duration : 1 h 42 min
    Bit rate mode : Constant
    Bit rate : 1 509 kb/s
    Channel(s) : 6 channels
    Channel positions : Front: L C R, Side: L R, LFE
    Sampling rate : 48.0 kHz
    Frame rate : 93.750 FPS (512 spf)
    Bit depth : 24 bits
    Compression mode : Lossy
    Stream size : 1.08 GiB (5%)
    Title : Д. Пучков (2004)
    Language : Russian
    Default : No
    Forced : No
    Audio #4
    ID : 5
    Format : DTS
    Format/Info : Digital Theater Systems
    Mode : 16
    Format settings, Endianness : Big
    Codec ID : A_DTS
    Duration : 1 h 42 min
    Bit rate mode : Constant
    Bit rate : 1 509 kb/s
    Channel(s) : 6 channels
    Channel positions : Front: L C R, Side: L R, LFE
    Sampling rate : 48.0 kHz
    Frame rate : 93.750 FPS (512 spf)
    Bit depth : 24 bits
    Compression mode : Lossy
    Stream size : 1.08 GiB (5%)
    Title : Ю. Сербин
    Language : Russian
    Default : No
    Forced : No
    Audio #5
    ID : 6
    Format : DTS
    Format/Info : Digital Theater Systems
    Mode : 16
    Format settings, Endianness : Big
    Codec ID : A_DTS
    Duration : 1 h 42 min
    Bit rate mode : Constant
    Bit rate : 1 509 kb/s
    Channel(s) : 6 channels
    Channel positions : Front: L C R, Side: L R, LFE
    Sampling rate : 48.0 kHz
    Frame rate : 93.750 FPS (512 spf)
    Bit depth : 24 bits
    Compression mode : Lossy
    Stream size : 1.08 GiB (5%)
    Title : А. Гаврилов
    Language : Russian
    Default : No
    Forced : No
    Audio #6
    ID : 7
    Format : DTS
    Format/Info : Digital Theater Systems
    Mode : 16
    Format settings, Endianness : Big
    Codec ID : A_DTS
    Duration : 1 h 42 min
    Bit rate mode : Constant
    Bit rate : 1 509 kb/s
    Channel(s) : 6 channels
    Channel positions : Front: L C R, Side: L R, LFE
    Sampling rate : 48.0 kHz
    Frame rate : 93.750 FPS (512 spf)
    Bit depth : 24 bits
    Compression mode : Lossy
    Stream size : 1.08 GiB (5%)
    Title : Ю. Живов
    Language : Russian
    Default : No
    Forced : No
    Audio #7
    ID : 8
    Format : DTS
    Format/Info : Digital Theater Systems
    Mode : 16
    Format settings, Endianness : Big
    Codec ID : A_DTS
    Duration : 1 h 42 min
    Bit rate mode : Constant
    Bit rate : 1 509 kb/s
    Channel(s) : 6 channels
    Channel positions : Front: L C R, Side: L R, LFE
    Sampling rate : 48.0 kHz
    Frame rate : 93.750 FPS (512 spf)
    Bit depth : 24 bits
    Compression mode : Lossy
    Stream size : 1.08 GiB (5%)
    Title : Оригинал
    Language : English
    Default : No
    Forced : No
    Text #1
    ID : 9
    Format : UTF-8
    Codec ID : S_TEXT/UTF8
    Codec ID/Info : UTF-8 Plain Text
    Duration : 1 h 14 min
    Bit rate : 0 b/s
    Count of elements : 22
    Stream size : 425 Bytes (0%)
    Title : Forced
    Language : Russian
    Default : Yes
    Forced : No
    Text #2
    ID : 10
    Format : UTF-8
    Codec ID : S_TEXT/UTF8
    Codec ID/Info : UTF-8 Plain Text
    Duration : 1 h 40 min
    Bit rate : 118 b/s
    Count of elements : 1380
    Stream size : 86.5 KiB (0%)
    Title : Пучков
    Language : Russian
    Default : No
    Forced : No
    Text #3
    ID : 11
    Format : UTF-8
    Codec ID : S_TEXT/UTF8
    Codec ID/Info : UTF-8 Plain Text
    Duration : 25 s 733 ms
    Bit rate : 17 b/s
    Count of elements : 2
    Stream size : 57.0 Bytes (0%)
    Title : Forced
    Language : English
    Default : No
    Forced : No
    Menu
    00: 00: 00.000 : en: Start; Diamond Snatch
    00: 06: 58.293 : en: Turkish Tommy; Brick Top
    00: 11: 53.546 : en: Boris His Brother; Avi; Doug the Head
    00: 16: 31.741 : en: Burying a Caravan; Gypsy Bare-Knuckle Champ
    00: 22: 47.908 : en: Sol; Tyrone His Getaway Car
    00: 30: 03.218 : en: Replacement Fighter; A Dive in the Fourth
    00: 36: 27.936 : en: All Bets Are Off; One-Punch Mickey
    00: 41: 39.414 : en: A Problem
    00: 48: 16.393 : en: Mickey\'s Offer
    00: 53: 13.607 : en: Not a Bad Moment?
    00: 59: 06.293 : en: Bullet-Tooth Tony; Brick Top\'s Persuasion
    01: 07: 47.105 : en: A Hard Man to Track Down; All Roads Lead to Boris
    01: 13: 24.525 : en: Desert Eagle vs. Replica; Russian Standoff
    01: 19: 09.536 : en: Predictability of Stupidity; “Look in the Dog.”
    01: 28: 12.579 : en: “Do Not Knock Him Out.”
    01: 33: 58.341 : en: Action Reaction


    Скриншоты для ознакомления




    Онлайн видео Большой куш



    Большой куш/Snatch. (2000) BDRip [H.264/1080p]
    загрузка...
    Рейтинг →
     (голосов: 1, оценка 4/5, голосовать можно 1 раз )

    Другие торренты по теме:

  • Большой куш / Snatch (2000) BDRip [H.264 / 720p] скачать через торрент бесплатно
  • Большой куш / Snatch. (2000) BDRip [H.264 / 720p]
  • Большой куш / Snatch. (2000) BDRemux [H.264 / 1080p]
  • Большой куш / Snatch. (2000) BDRip [AVO]
  • Большой куш / Snatch (2000) BDRip [H.264 / 1080p-LQ]
  • Большой куш / Snatch (2017) WEBRip [H.264 / 1080p-LQ] (сезон 1, серии 1-2 из 10) OmskBird (обновляемая)
  • Большой куш / Snatch (2017) WEBRip (сезон 1, серии 1-7 из 10) NewStudio (обновляемая)


    • Комментарии (0):

      Информация

      Информация

        Посетители, находящиеся в группе Гости, не могут оставлять комментарии в данной новости.

        ↓ Меню




        ↓ Опрос

        Вы добавили сайт в закладки?
        Да
        Нет


        Top 10 за месяц (Фильмы)