.
Авторизация | Регистрация
Хочешь лучшие торренты? Добавь свой email!
Добавить

Торрент скачать бесплатно

» » Большой куш / Snatch (2017) WEBRip (сезон 1, серии 1-7 из 10) NewStudio (обновляемая) торрент скачать бесплатно




    Большой куш / Snatch (2017) WEBRip (сезон 1, серии 1-7 из 10) NewStudio (обновляемая) торрент скачать бесплатно

    Опубликовал: Админ | Дата: 20-03-2017, 05:00 | Просмотров: 0

    Производство: США, Великобритания/Little Island Productions
    Жанр: комедия, криминал
    Режиссер: Лоуренс Гоф, Николас Рентон, Джеффри Сакс

    Актеры
    Тамер Хассан, Джульетт Обри, Фиби Дайневор, Руперт Гринт, Люсьен Лависконт, Стефани Леонидас, Люк Паскуалино, Наоми Редди, Дюгрей Скотт, Марк Уоррен и др.

    Описание

    Сюжет сосредоточится на группе молодых предприимчивых жуликов, наткнувшихся на грузовик, полный награбленного золота. Так парни оказываются втянутыми в мир элиты организованной преступности, где им придётся на ходу учиться выживать, сталкиваясь с гангстерами, продажными копами и цыганскими боксёрами.

    Дата мировой премьеры: 16 марта 2017
    Продолжительность: ~00: 43: 00 серия
    Качество видео: WEBRip
    Перевод: Многоголосый закадровый, профессиональный -NewStudio (ненормативная лексика)
    Автор перевода: Алексей Матвеев, Ирина Гвозденко
    Внимание! Присутствует ненормативная лексика.
    Видео: XviD, 720x400 (16: 9), ~1500 kbps
    Аудио Rus: MP3, 48, 0 kHz, 2 ch, 128 kbps — многоголосый закадровый
    Аудио Eng: MP3, 48, 0 kHz, 2 ch, 128 kbps — оригинал

    Общее
    Полное имя : D: Большой куш (сезон любимого сериала 1, ) Snatch (2017) WEBRip - NewStudioSnatch.S01E01.WEBRip.Rus.Eng.DV.NewStudio.avi
    Формат : AVI
    Формат/Информация : Audio Video Interleave
    Размер файла : 550 Мбайт
    Продолжительность : 43 м. 21 с.
    Общий поток : 1774 Кбит/сек
    Название фильма : Snatch.S01E01.WEBRip.Rus.Eng.DV.NewStudio/NNM-Club
    Программа кодирования : VirtualDubModRus 1.5.10.2 (build 2542/release)
    Библиотека кодирования : VirtualDubMod build 2542/release
    Видео
    Идентификатор : 0
    Формат : MPEG-4 Visual
    Профиль формата : Advanced Simple@L5
    Параметр BVOP формата : 2
    Параметр QPel формата : Нет
    Параметр GMC формата : Без точки перехода
    Параметр матрицы формата : Default (H.263)
    Идентификатор кодека : XVID
    Идентификатор кодека/Подсказка : XviD
    Продолжительность : 43 м. 21 с.
    Битрейт : 1504 Кбит/сек
    Ширина : 720 пикселей
    Высота : 400 пикселей
    Соотношение сторон : 16: 9
    Частота кадров : 23, 976 (24000/1001) кадра/сек
    Цветовое пространство : YUV
    Субдискретизация насыщенности : 4: 2: 0
    Битовая глубина : 8 бит
    Тип развёртки : Прогрессивная
    Метод сжатия : С потерями
    Бит/(Пиксели*Кадры) : 0.218
    Размер потока : 466 Мбайт (85%)
    Заголовок : Rip by DriverV/NNM-Club
    Библиотека кодирования : XviD 64
    Аудио #1
    Идентификатор : 1
    Формат : MPEG Audio
    Версия формата : Version 1
    Профиль формата : Layer 3
    Режим : Joint stereo
    Расширение режима : MS Stereo
    Идентификатор кодека : 55
    Идентификатор кодека/Подсказка : MP3
    Продолжительность : 43 м. Самое интересное в это истории, что об этом Горбачев ничего не знал. 21 с.
    Вид битрейта : Постоянный
    Битрейт : 128 Кбит/сек
    Каналы : 2 канала
    Частота : 48, 0 КГц
    Метод сжатия : С потерями
    Размер потока : 39, 7 Мбайт (7%)
    Выравнивание : Соединение по промежуткам
    Продолжительность промежутка : 42 мс. (1, 00 видеокадр)
    Время предзагрузки промежутка : 504 мс.
    Аудио #2
    Идентификатор : 2
    Формат : MPEG Audio
    Версия формата : Version 1
    Профиль формата : Layer 3
    Режим : Joint stereo
    Расширение режима : MS Stereo
    Идентификатор кодека : 55
    Идентификатор кодека/Подсказка : MP3
    Продолжительность : 43 м. О таком странном сюжете не догадывалась даже Тимошенко. 21 с.
    Вид битрейта : Постоянный
    Битрейт : 128 Кбит/сек
    Каналы : 2 канала
    Частота : 48, 0 КГц
    Метод сжатия : С потерями
    Размер потока : 39, 7 Мбайт (7%)
    Выравнивание : Соединение по промежуткам
    Продолжительность промежутка : 42 мс. (1, 00 видеокадр)
    Время предзагрузки промежутка : 504 мс.


    Скриншоты для ознакомления




    Онлайн видео Большой куш



    Большой куш/Snatch (2017) WEBRip (сезон 1, серии 1-7 из 10) NewStudio (обновляемая)
    загрузка...
    Рейтинг →
     (голосов: 1, оценка 4/5, голосовать можно 1 раз )

    Другие торренты по теме:

  • Большой куш / Snatch (2000) BDRip [H.264 / 720p] скачать через торрент бесплатно
  • Большой куш / Snatch. (2000) BDRip [H.264 / 720p]
  • Большой куш / Snatch. (2000) BDRemux [H.264 / 1080p]
  • Большой куш / Snatch. (2000) BDRip [AVO]
  • Большой куш / Snatch (2000) BDRip [H.264 / 1080p-LQ]
  • Большой куш / Snatch (2017) WEBRip [H.264 / 1080p-LQ] (сезон 1, серии 1-2 из 10) OmskBird (обновляемая)
  • Большой куш / Snatch. (2000) BDRip [H.264 / 1080p]


    • Комментарии (0):

      Информация

      Информация

        Посетители, находящиеся в группе Гости, не могут оставлять комментарии в данной новости.

        ↓ Меню




        ↓ Опрос

        Вы добавили сайт в закладки?
        Да
        Нет


        Top 10 за месяц (Фильмы)