.
Авторизация | Регистрация
Хочешь лучшие торренты? Добавь свой email!
Добавить

Торрент скачать бесплатно

» » Marcus Johnson - Chocolate City Groovin (1998) Encoded Music [FLAC|Lossless|tracks + .cue] <Smooth Jazz, Jazz-Pop> скачать торрент бесплатно



    Marcus Johnson - Chocolate City Groovin (1998) Encoded Music [FLAC|Lossless|tracks + .cue] <Smooth Jazz, Jazz-Pop> скачать торрент бесплатно

    Опубликовал: Админ | Дата: 13-02-2017, 05:00 | Просмотров: 0

    Жанр: Smooth Jazz, едва заметно, Jazz-Pop
    Издание: Encoded Music - 43092 ERE
    Продолжительность: 00: 50: 12
    Кодек: FLAC (tracks+.cue)
    Битрейт: Lossless
    Источник (релизер): begaybe
    Страна-производитель диска: Germany
    Наличие сканов в содержимом раздачи: да
    Треклист:
    01.Chocolate City Groovin\' 03: 30
    02.Out Of Somewhere 04: 13
    03.88 Ways To Love 05: 01
    04.Morning Light 05: 07
    05.The Neck Factor 04: 28
    06.Doc\'s Groove 04: 30
    07.Won\'t You Let Me Love You 03: 52
    08.Til The Cops Come Knockin\' 04: 38
    09.Maxin\' 04: 59
    10.It\'s So Nice 05: 18
    11.Morning Light (Instrumental) 04: 40

    EAC extraction logfile from 30. Все ожидали другого развития, но получилось вот так. December 2007, будто капли серебряной воды, 10: 31 for CD
    Marcus Johnson/Chocolate City Groovin\'
    Used drive : PIONEER DVD-RW DVR-108 Adapter: 3 ID: 1
    Read mode : Secure with NO C2, вертится как белка в колесе, accurate stream, в большинстве случаев, disable cache
    Read offset correction : 48
    Overread into Lead-In and Lead-Out : No
    Used output format : C: Program FilesExact Audio Copyflac.exe (User Defined Encoder)
    320 kBit/s
    Additional command line options : -8 -V -T ARTIST=%a -T TITLE=%t -T ALBUM=%g -T DATE=%y -T TRACKNUMBER=%n -T GENRE=%m -T COMMENT=EAC FLAC -8 %s
    Other options :
    Fill up missing offset samples with silence : Yes
    Delete leading and trailing silent blocks : No
    Installed external ASPI interface
    Track 1
    Filename I: Marcus Johnson - Chocolate City Groovin\' (1998) Flac1 - Chocolate City Groovin\'.wav
    Pre-gap length 0: 00: 02.00
    Peak level 99.9 %
    Track quality 100.0 %
    Test CRC C0B4517B
    Copy CRC C0B4517B
    Copy OK
    Track 2
    Filename I: Marcus Johnson - Chocolate City Groovin\' (1998) Flac2 - Out Of Somewhere.wav
    Peak level 99.9 %
    Track quality 100.0 %
    Test CRC 56398939
    Copy CRC 56398939
    Copy OK
    Track 3
    Filename I: Marcus Johnson - Chocolate City Groovin\' (1998) Flac3 - 88 Ways To Love.wav
    Peak level 99.9 %
    Track quality 100.0 %
    Test CRC 6E27353F
    Copy CRC 6E27353F
    Copy OK
    Track 4
    Filename I: Marcus Johnson - Chocolate City Groovin\' (1998) Flac4 - Morning Light.wav
    Pre-gap length 0: 00: 01.17
    Peak level 99.8 %
    Track quality 100.0 %
    Test CRC C9F0372E
    Copy CRC C9F0372E
    Copy OK
    Track 5
    Filename I: Marcus Johnson - Chocolate City Groovin\' (1998) Flac5 - The Neck Factor.wav
    Pre-gap length 0: 00: 01.26
    Peak level 99.9 %
    Track quality 99.9 %
    Test CRC 1A805F3C
    Copy CRC 1A805F3C
    Copy OK
    Track 6
    Filename I: Marcus Johnson - Chocolate City Groovin\' (1998) Flac6 - Doc\'s Groove.wav
    Peak level 99.9 %
    Track quality 100.0 %
    Test CRC 75CB71F5
    Copy CRC 75CB71F5
    Copy OK
    Track 7
    Filename I: Marcus Johnson - Chocolate City Groovin\' (1998) Flac7 - Won\'t You Let Me Love You.wav
    Peak level 99.9 %
    Track quality 100.0 %
    Test CRC 0B081656
    Copy CRC 0B081656
    Copy OK
    Track 8
    Filename I: Marcus Johnson - Chocolate City Groovin\' (1998) Flac8 - Til The Cops Come Knockin\'.wav
    Pre-gap length 0: 00: 02.24
    Peak level 99.9 %
    Track quality 100.0 %
    Test CRC E65232AE
    Copy CRC E65232AE
    Copy OK
    Track 9
    Filename I: Marcus Johnson - Chocolate City Groovin\' (1998) Flac9 - Maxin\'.wav
    Pre-gap length 0: 00: 01.84
    Peak level 99.9 %
    Track quality 99.9 %
    Test CRC C91DC20F
    Copy CRC C91DC20F
    Copy OK
    Track 10
    Filename I: Marcus Johnson - Chocolate City Groovin\' (1998) Flac10 - It\'s So Nice.wav
    Pre-gap length 0: 00: 01.57
    Peak level 99.9 %
    Track quality 100.0 %
    Test CRC FA48A123
    Copy CRC FA48A123
    Copy OK
    Track 11
    Filename I: Marcus Johnson - Chocolate City Groovin\' (1998) Flac11 - Morning Light (Instrumental).wav
    Pre-gap length 0: 00: 02.24
    Peak level 99.8 %
    Track quality 100.0 %
    Test CRC 526733AB
    Copy CRC 526733AB
    Copy OK
    No errors occured
    End of status report

    REM GENRE Jazz
    REM DATE 1998
    REM DISCID 840BC30B
    REM COMMENT ExactAudioCopy v0.95b3
    PERFORMER Marcus Johnson
    TITLE Chocolate City Groovin\'
    FILE 01 - Chocolate City Groovin\'.wav WAVE
    TRACK 01 AUDIO
    TITLE Chocolate City Groovin\'
    PERFORMER Marcus Johnson
    INDEX 01 00: 00: 00
    FILE 02 - Out Of Somewhere.wav WAVE
    TRACK 02 AUDIO
    TITLE Out Of Somewhere
    PERFORMER Marcus Johnson
    INDEX 01 00: 00: 00
    FILE 03 - 88 Ways To Love.wav WAVE
    TRACK 03 AUDIO
    TITLE 88 Ways To Love
    PERFORMER Marcus Johnson
    INDEX 01 00: 00: 00
    TRACK 04 AUDIO
    TITLE Morning Light
    PERFORMER Marcus Johnson
    INDEX 00 04: 59: 20
    FILE 04 - Morning Light.wav WAVE
    INDEX 01 00: 00: 00
    TRACK 05 AUDIO
    TITLE The Neck Factor
    PERFORMER Marcus Johnson
    INDEX 00 05: 05: 32
    FILE 05 - The Neck Factor.wav WAVE
    INDEX 01 00: 00: 00
    FILE 06 - Doc\'s Groove.wav WAVE
    TRACK 06 AUDIO
    TITLE Doc\'s Groove
    PERFORMER Marcus Johnson
    INDEX 01 00: 00: 00
    FILE 07 - Won\'t You Let Me Love You.wav WAVE
    TRACK 07 AUDIO
    TITLE Won\'t You Let Me Love You
    PERFORMER Marcus Johnson
    INDEX 01 00: 00: 00
    TRACK 08 AUDIO
    TITLE Til The Cops Come Knockin\'
    PERFORMER Marcus Johnson
    INDEX 00 03: 49: 35
    FILE 08 - Til The Cops Come Knockin\'.wav WAVE
    INDEX 01 00: 00: 00
    TRACK 09 AUDIO
    TITLE Maxin\'
    PERFORMER Marcus Johnson
    INDEX 00 04: 35: 72
    FILE 09 - Maxin\'.wav WAVE
    INDEX 01 00: 00: 00
    TRACK 10 AUDIO
    TITLE It\'s So Nice
    PERFORMER Marcus Johnson
    INDEX 00 04: 56: 47
    FILE 10 - It\'s So Nice.wav WAVE
    INDEX 01 00: 00: 00
    TRACK 11 AUDIO
    TITLE Morning Light (Instrumental)
    PERFORMER Marcus Johnson
    INDEX 00 05: 15: 32
    FILE 11 - Morning Light (Instrumental).wav WAVE
    INDEX 01 00: 00: 00

    -----------------------
    DON\'T MODIFY THIS FILE
    -----------------------
    PERFORMER: auCDtect Task Manager, темно как ночью, ver. Рядом пронесли цветы в корзинах. 1.6.0 RC1 build 1.6.0.1
    Copyright (c) 2008-2010 y-soft. Без дела жить только небо коптить. All rights reserved
    http://y-soft.org
    ANALYZER: auCDtect: CD records authenticity detector, как над жаровней, version 0.8.2
    Copyright (c) 2004 Oleg Berngardt. Да м, ангельское терпение. All rights reserved.
    Copyright (c) 2004 Alexander Djourik. Где то в небе орёл громко закричал и расправил крылья. All rights reserved.
    FILE: 11 - Morning Light (Instrumental).flac
    Size: 30781323 Hash: 33C3969B0371A43F9827E28C2F2E0D97 Accuracy: -m0
    Conclusion: CDDA 100%
    Signature: 921167C7A072EC9281907B8F8DEF75F5C608F40A
    FILE: 10 - It\'s So Nice.flac
    Size: 35406887 Hash: 50BE5A7D4225897B4E83A9413B8D4448 Accuracy: -m0
    Conclusion: CDDA 100%
    Signature: 3992CCEA258E2911AF1130775149A098B06A2C35
    FILE: 09 - Maxin\'.flac
    Size: 32081620 Hash: 894082516AAAC661C980294D300AEE74 Accuracy: -m0
    Conclusion: CDDA 100%
    Signature: 897353F3D2C61317C5FC13EE9C8B3F52DEB96065
    FILE: 08 - Til The Cops Come Knockin\'.flac
    Size: 31265410 Hash: 6B7630795332F1CDCA602C3C8C437CE9 Accuracy: -m0
    Conclusion: CDDA 100%
    Signature: 84A14D2F3FC087D169515BC27CE21899293B3B07
    FILE: 07 - Won\'t You Let Me Love You.flac
    Size: 26065457 Hash: C58573E5F401B4F79450D9BC46194D60 Accuracy: -m0
    Conclusion: CDDA 99%
    Signature: C3727CB98C3431B04F10EE281C1CD29F15C07C20
    FILE: 06 - Doc\'s Groove.flac
    Size: 32981512 Hash: E89BC0641E79A825EC1F10826449B609 Accuracy: -m0
    Conclusion: CDDA 100%
    Signature: B1C5747F623A6736CCF5C549E5ADAB50F31DF118
    FILE: 05 - The Neck Factor.flac
    Size: 29093063 Hash: C8A45CCFDD61A6F38214E6B33399725E Accuracy: -m0
    Conclusion: CDDA 100%
    Signature: 006D37EBE4FCEF09D39725CE388176A8C0649698
    FILE: 04 - Morning Light.flac
    Size: 35657611 Hash: C3EB68F312D0979A5E7B70800317776E Accuracy: -m0
    Conclusion: CDDA 100%
    Signature: 9AFEAB04B496ACA56B865E9B03D8F36DD92A6C35
    FILE: 03 - 88 Ways To Love.flac
    Size: 34080979 Hash: 91E364345B1D4BCEAF5291B2BD340B86 Accuracy: -m0
    Conclusion: CDDA 100%
    Signature: BF6370A796C588AFB59687389F0DAF2D69AB3290
    FILE: 02 - Out Of Somewhere.flac
    Size: 28065529 Hash: 9E5467870523AF430C48CE7A41D62011 Accuracy: -m0
    Conclusion: CDDA 99%
    Signature: 007BA56304CAE76DE2EE869EA7D0F9B754CFE24A
    FILE: 01 - Chocolate City Groovin\'.flac
    Size: 23999481 Hash: 4931199DC392B27C18E4D3B5C4992F95 Accuracy: -m0
    Conclusion: CDDA 100%
    Signature: 4BF153CBCCD22295A62BB9665D4EB492F4CC6D7A

    Прямая ссылка скачивания через uTorrent


    Marcus Johnson - Chocolate City Groovin (1998) Encoded Music [FLAC|Lossless|tracks + .cue] <Smooth Jazz, Jazz-Pop>
    загрузка...
    Рейтинг →
     (голосов: 1, оценка 5/5, голосовать можно 1 раз )

    Другие торренты по теме:

  • The Marcus King Band - The Marcus King Band (2016) [FLAC|Lossless|image + .cue] <Soul-influenced Psychedelic Southern Rock>
  • Marcus Koch - Silhouettes (2014) [MP3|320 кб / с] <ChillOut, Downtempo, Lounge> скачать через торрент бесплатно
  • Marcus Koch - Chillscapes Vol.1 (2014) [MP3|320 кб / с] <Downtempo, Chill Out>
  • Marcus Viana - Pleiadian Connections (2015) [MP3|320 кб / с]<New Age, Instrumental, Meditation> скачать через торрент бесплатно
  • Blank & Jones - Relax Jazzed 2 by Marcus Loeber (2014) [FLAC|tracks + .cue]<Lounge, Chillout, Jazzy> скачать через торрент бесплатно
  • Marcus Stricklands Twi-Life - Nihil Novi (2016) [MP3|320 кб / с] <Jazz>
  • Blank & Jones - Silent Piano (Songs For Sleeping By Marcus Loeber) (2016) [FLAC|Lossless|WEB-DL|tracks] <Solo Piano, Electro>
  • Chris Potter, David Virelles, Joe Martin, Marcus Gilmore - The Dreamer Is The Dream (2017) ECM Records [FLAC|Lossless|tracks + .cue] <Post-Bop, Modern Creative>


    • Комментарии (0):

      Информация

      Информация

        Посетители, находящиеся в группе Гости, не могут оставлять комментарии в данной новости.

        ↓ Меню




        ↓ Опрос

        Вы добавили сайт в закладки?
        Да
        Нет


        Top 10 за месяц (Фильмы)