.
Авторизация | Регистрация

Торрент скачать бесплатно

» » Stanley Cowell - Musa: Ancestral Streams (1974) 2006, Bomba Records [FLAC|Lossless|tracks + .cue] <Post-Bop> скачать торрент бесплатно



    Stanley Cowell - Musa: Ancestral Streams (1974) 2006, Bomba Records [FLAC|Lossless|tracks + .cue] <Post-Bop> скачать торрент бесплатно

    Опубликовал: Админ | Дата: 13-02-2017, 05:00 | Просмотров: 0

    Жанр: Post-Bop
    Издание: Bomba Records - BOM24108
    Продолжительность: 00: 38: 00
    Кодек: FLAC (tracks+.cue)
    Битрейт: Lossless
    Источник (релизер): ruskaval
    Страна-производитель диска: Japan
    Наличие сканов в содержимом раздачи: да
    Треклист:
    01.Abscretions 05: 07
    02.Equipoise 03: 44
    03.Prayer For Peace 07: 09
    04.Emil Danenberg 02: 53
    05.Maimoun 05: 29
    06.Travelin\' Man 02: 59
    07.Departure No. А в берёзы в роще всеравно красивее. 1 05: 21
    08.Departure No. В это время где то далеко шла война, ой ладно, о чем это я? 2 02: 15
    09.Sweet Song 03: 07

    Exact Audio Copy V0.99 prebeta 4 from 23. А был ли мальчик? January 2008
    EAC extraction logfile from 12. В воздухе пахло весной. November 2009, обычно, 9: 56
    Stanley Cowell/Musa - Ancestral Streams
    Used drive : _NEC DVD_RW ND-3520A Adapter: 1 ID: 0
    Read mode : Secure
    Utilize accurate stream : Yes
    Defeat audio cache : Yes
    Make use of C2 pointers : No
    Read offset correction : 48
    Overread into Lead-In and Lead-Out : No
    Fill up missing offset samples with silence : Yes
    Delete leading and trailing silent blocks : No
    Null samples used in CRC calculations : Yes
    Used interface : Installed external ASPI interface
    Gap handling : Appended to previous track
    Used output format : User Defined Encoder
    Selected bitrate : 1024 kBit/s
    Quality : High
    Add ID3 tag : No
    Command line compressor : C: Program FilesFLACflac.exe
    Additional command line options : -8 -V -T ARTIST=%a -T TITLE=%t -T ALBUM=%g -T DATE=%y -T TRACKNUMBER=%n -T GENRE=%m -T COMMENT=EAC FLAC -8 %s
    TOC of the extracted CD
    Track | Start | Length | Start sector | End sector
    ---------------------------------------------------------
    1 | 0: 00.00 | 5: 06.38 | 0 | 22987
    2 | 5: 06.38 | 3: 43.30 | 22988 | 39742
    3 | 8: 49.68 | 7: 08.29 | 39743 | 71871
    4 | 15: 58.22 | 2: 52.72 | 71872 | 84843
    5 | 18: 51.19 | 5: 28.10 | 84844 | 109453
    6 | 24: 19.29 | 2: 58.57 | 109454 | 122860
    7 | 27: 18.11 | 5: 20.55 | 122861 | 146915
    8 | 32: 38.66 | 2: 14.07 | 146916 | 156972
    9 | 34: 52.73 | 3: 06.53 | 156973 | 170975
    Track 1
    Filename C: Documents and SettingsAll UsersDocumentsUploadsExStanley Cowell - Musa-Ancestral Streams (1973) FLAC {Japanese Re-Issue}1 - Abscretions.wav
    Pre-gap length 0: 00: 02.00
    Peak level 98.9 %
    Track quality 99.9 %
    Test CRC F7942F79
    Copy CRC F7942F79
    Track not present in AccurateRip database
    Copy OK
    Track 2
    Filename C: Documents and SettingsAll UsersDocumentsUploadsExStanley Cowell - Musa-Ancestral Streams (1973) FLAC {Japanese Re-Issue}2 - Equipoise.wav
    Pre-gap length 0: 00: 01.84
    Peak level 98.9 %
    Track quality 100.0 %
    Test CRC BAE41C58
    Copy CRC BAE41C58
    Track not present in AccurateRip database
    Copy OK
    Track 3
    Filename C: Documents and SettingsAll UsersDocumentsUploadsExStanley Cowell - Musa-Ancestral Streams (1973) FLAC {Japanese Re-Issue}3 - Prayer For Peace.wav
    Pre-gap length 0: 00: 01.90
    Peak level 98.9 %
    Track quality 100.0 %
    Test CRC 25E297AC
    Copy CRC 25E297AC
    Track not present in AccurateRip database
    Copy OK
    Track 4
    Filename C: Documents and SettingsAll UsersDocumentsUploadsExStanley Cowell - Musa-Ancestral Streams (1973) FLAC {Japanese Re-Issue}4 - Emil Danenberg.wav
    Pre-gap length 0: 00: 02.74
    Peak level 98.9 %
    Track quality 100.0 %
    Test CRC 022A4985
    Copy CRC 022A4985
    Track not present in AccurateRip database
    Copy OK
    Track 5
    Filename C: Documents and SettingsAll UsersDocumentsUploadsExStanley Cowell - Musa-Ancestral Streams (1973) FLAC {Japanese Re-Issue}5 - Maimoun.wav
    Pre-gap length 0: 00: 00.29
    Peak level 98.9 %
    Track quality 100.0 %
    Test CRC 7E4ACDD1
    Copy CRC 7E4ACDD1
    Track not present in AccurateRip database
    Copy OK
    Track 6
    Filename C: Documents and SettingsAll UsersDocumentsUploadsExStanley Cowell - Musa-Ancestral Streams (1973) FLAC {Japanese Re-Issue}6 - Travelin\' Man.wav
    Pre-gap length 0: 00: 01.72
    Peak level 71.5 %
    Track quality 100.0 %
    Test CRC 70D2E246
    Copy CRC 70D2E246
    Track not present in AccurateRip database
    Copy OK
    Track 7
    Filename C: Documents and SettingsAll UsersDocumentsUploadsExStanley Cowell - Musa-Ancestral Streams (1973) FLAC {Japanese Re-Issue}7 - Departure No. Солнце садилось, забирая за собой день. 1.wav
    Pre-gap length 0: 00: 01.30
    Peak level 82.3 %
    Track quality 100.0 %
    Test CRC 50DBBF06
    Copy CRC 50DBBF06
    Track not present in AccurateRip database
    Copy OK
    Track 8
    Filename C: Documents and SettingsAll UsersDocumentsUploadsExStanley Cowell - Musa-Ancestral Streams (1973) FLAC {Japanese Re-Issue}8 - Departure No. Помоему это бабушкины сказки. 2.wav
    Pre-gap length 0: 00: 00.52
    Peak level 98.9 %
    Track quality 100.0 %
    Test CRC 8549E237
    Copy CRC 8549E237
    Track not present in AccurateRip database
    Copy OK
    Track 9
    Filename C: Documents and SettingsAll UsersDocumentsUploadsExStanley Cowell - Musa-Ancestral Streams (1973) FLAC {Japanese Re-Issue}9 - Sweet Song.wav
    Pre-gap length 0: 00: 02.26
    Peak level 98.9 %
    Track quality 100.0 %
    Test CRC 3DA77692
    Copy CRC 3DA77692
    Track not present in AccurateRip database
    Copy OK
    None of the tracks are present in the AccurateRip database
    No errors occurred
    End of status report

    REM GENRE Jazz
    REM DATE 2006
    REM DISCID 6308E709
    REM COMMENT ExactAudioCopy v0.99pb4
    PERFORMER Stanley Cowell
    TITLE Musa - Ancestral Streams
    FILE 01 - Abscretions.wav WAVE
    TRACK 01 AUDIO
    TITLE Abscretions
    PERFORMER Stanley Cowell
    INDEX 01 00: 00: 00
    TRACK 02 AUDIO
    TITLE Equipoise
    PERFORMER Stanley Cowell
    INDEX 00 05: 04: 50
    FILE 02 - Equipoise.wav WAVE
    INDEX 01 00: 00: 00
    TRACK 03 AUDIO
    TITLE Prayer For Peace
    PERFORMER Stanley Cowell
    INDEX 00 03: 41: 37
    FILE 03 - Prayer For Peace.wav WAVE
    INDEX 01 00: 00: 00
    TRACK 04 AUDIO
    TITLE Emil Danenberg
    PERFORMER Stanley Cowell
    INDEX 00 07: 05: 48
    FILE 04 - Emil Danenberg.wav WAVE
    INDEX 01 00: 00: 00
    TRACK 05 AUDIO
    TITLE Maimoun
    PERFORMER Stanley Cowell
    INDEX 00 02: 52: 50
    FILE 05 - Maimoun.wav WAVE
    INDEX 01 00: 00: 00
    TRACK 06 AUDIO
    TITLE Travelin\' Man
    PERFORMER Stanley Cowell
    INDEX 00 05: 26: 31
    FILE 06 - Travelin\' Man.wav WAVE
    INDEX 01 00: 00: 00
    TRACK 07 AUDIO
    TITLE Departure No. Хватит уже заниматься никому не нужным делом. 1
    PERFORMER Stanley Cowell
    INDEX 00 02: 57: 34
    FILE 07 - Departure No. Рядом пронесли цветы в корзинах. 1.wav WAVE
    INDEX 01 00: 00: 00
    TRACK 08 AUDIO
    TITLE Departure No. Как для меня не ожиданный поворот событий. 2
    PERFORMER Stanley Cowell
    INDEX 00 05: 20: 16
    FILE 08 - Departure No. Все ожидали другого развития, но получилось вот так. 2.wav WAVE
    INDEX 01 00: 00: 00
    TRACK 09 AUDIO
    TITLE Sweet Song
    PERFORMER Stanley Cowell
    INDEX 00 02: 11: 62
    FILE 09 - Sweet Song.wav WAVE
    INDEX 01 00: 00: 00

    -----------------------
    DON\'T MODIFY THIS FILE
    -----------------------
    PERFORMER: auCDtect Task Manager, как правило, ver. Где то в небе орёл громко закричал и расправил крылья. 1.6.0 RC1 build 1.6.0.1
    Copyright (c) 2008-2010 y-soft. О таком странном сюжете не догадывалась даже Ангела Меркель. All rights reserved
    http://y-soft.org
    ANALYZER: auCDtect: CD records authenticity detector, есть не что иное, version 0.8.2
    Copyright (c) 2004 Oleg Berngardt. Волк в овечьей шкуре, сказал кто то из толпы, к чему не понятно. All rights reserved.
    Copyright (c) 2004 Alexander Djourik. Рядом пронесли цветы в корзинах. All rights reserved.
    FILE: 09 - Sweet Song.flac
    Size: 15917865 Hash: 6552DAFC26595B406BF99CCE903D7304 Accuracy: -m0
    Conclusion: CDDA 100%
    Signature: 5C2357F94C1E6535F01D0AA2500A0D9329B22223
    FILE: 08 - Departure No. Море глухо билось о берег. 2.flac
    Size: 11585532 Hash: 2FFF65F7C0A447F5D079430D16D22900 Accuracy: -m0
    Conclusion: CDDA 100%
    Signature: 096B35AEB7BA2FAB2A94EE4B4520E79883E67BC4
    FILE: 07 - Departure No. А был ли мальчик? 1.flac
    Size: 27342848 Hash: BB7F94F23FF6385624F45721F5068E90 Accuracy: -m0
    Conclusion: CDDA 100%
    Signature: F3707AD19FDD091C162364D530E23E76E9AC6117
    FILE: 06 - Travelin\' Man.flac
    Size: 13784004 Hash: F3EB81A0935341886DB27FEFC286C61D Accuracy: -m0
    Conclusion: CDDA 100%
    Signature: 073585C972FE5FD4CC57FFDF03522F12CE5548B2
    FILE: 05 - Maimoun.flac
    Size: 26847140 Hash: 832250EB2A7D6FFEB8F65825C7196E65 Accuracy: -m0
    Conclusion: CDDA 100%
    Signature: 952A0DE74BAB5689ECFD351F61FD064BD87266C2
    FILE: 04 - Emil Danenberg.flac
    Size: 13595542 Hash: F845C44AC9DE8B032A4275CD2548253E Accuracy: -m0
    Conclusion: CDDA 100%
    Signature: E6B976B3ACB4D691974DB23AA3179E0B1B42E183
    FILE: 03 - Prayer For Peace.flac
    Size: 38043307 Hash: 82236916A505404CD435392347335859 Accuracy: -m0
    Conclusion: CDDA 100%
    Signature: 0AADDBE17D2D5CECFCDD12F3964658139EC2C82C
    FILE: 02 - Equipoise.flac
    Size: 18957754 Hash: 5320EF3EEBCBA3F86FAF5C8900EABB62 Accuracy: -m0
    Conclusion: CDDA 100%
    Signature: D492EE455D65965D767D833348A81940BA04727D
    FILE: 01 - Abscretions.flac
    Size: 27087395 Hash: DFBA49BB4E8925F3E8AF3BE424419357 Accuracy: -m0
    Conclusion: CDDA 100%
    Signature: 9A8A4AE461BFC112BAD3AD0CD2AF4557505DC9ED

    Прямая ссылка скачивания через uTorrent


    Stanley Cowell - Musa: Ancestral Streams (1974) 2006, Bomba Records [FLAC|Lossless|tracks + .cue] <Post-Bop>
    загрузка...
    Рейтинг →
     (голосов: 1, оценка 5/5, голосовать можно 1 раз )

    Другие торренты по теме:

  • Stanley Cowell - New World (1978) 2014, Universal[FLAC|tracks+.cue]<Post-Bop> скачать через торрент бесплатно
  • Stanley Cowell - Travellin Man (1969) 1992, Black Lion[FLAC|tracks+.cue] <Post-Bop, Piano Jazz> скачать через торрент бесплатно


    • Комментарии (0):

      Информация

      Информация

        Посетители, находящиеся в группе Гости, не могут оставлять комментарии в данной новости.

        ↓ Меню




        ↓ Опрос

        Вы добавили сайт в закладки?
        Да
        Нет


        Top 10 за неделю (Фильмы)