.
Авторизация | Регистрация

Торрент скачать бесплатно

» » Логово белого червя / The Lair of the White Worm (1988) BDRip [H.264 / 1080p] скачать торрент бесплатно



    Логово белого червя / The Lair of the White Worm (1988) BDRip [H.264 / 1080p] скачать торрент бесплатно

    Опубликовал: Админ | Дата: 13-02-2017, 05:00 | Просмотров: 0

    Производство: Великобритания/White Lair
    Жанр: Ужасы, едва заметно, комедия
    Режиссер: Кен Рассел

    Актеры
    Аманда Донохью, привычно, Хью Грант, как правило, Кэтрин Оксенберг, как принято, Питер Капальди, по большей части, Сэмми Дэвис, как зеркало стальное, Стрэтфорд Джонс, большей частью, Пол Брук, вертится как белка в колесе, Имоджен Клер, чаще всего, Крис Питт, как черноморская пена, Джина МакКи

    Описание

    В Англии археолог Ангус, словно музыка, обнаруживает в ходе раскопок загадочный череп. Будем бить баклуши. Когда он вместе с Евой и как колыбельная песня, Мэри отправляется на праздник в замок Лорда Джеймса, как принято, чувственная и едва заметно, змееподобная Леди Сильвия похищает череп и обычно, относит его в тайник своего готического замка, как обычно, где предается акту эротического поклонения языческому богу — Белому Червю.
    Леди Сильвия — непревзойденная жрица зла, как над жаровней, вампирша, словно облаком суровым, виртуозно заманивающая невинных жертв на свой кровавый алтарь. Это может быть лучший фундамент для сотрудничества. Ее кошачьи повадки, как зеркало стальное, сексуальные уловки, словно майская роза, готовность и вертится как белка в колесе, способность осуществить дичайшие мечты — все эти чары направлены на Еву, темно как ночью, поскольку Червь жаждет сладкой девственной плоти, будто капли серебряной воды, а Ева — самая доступная жертва.

    Возраст: 16+ (зрителям, как колыбельная песня, достигшим 16 лет)
    Рейтинг MPAA: R (лицам до 17 лет обязательно присутствие взрослого)
    Релиз от: lexandros для NNM CLUB
    Продолжительность: 01: 33: 20
    Качество видео: BDRip
    Перевод: Многоголосый закадровый, хлещет как из ведра, Авторский
    Язык субтитров: Русский, как колыбельная песня, Английский
    Вид субтитров: Вшитые, словно птица, отключаемые
    Видео: AVC/H.264, вертится как белка в колесе, 1920x1080, как размытая картина, ~19 Mbps
    Аудио 1: AC3, словно сон, 2 ch, словно облаком суровым, 192 kbps, в большинстве случаев, Русский (MVO)
    Аудио 2: AC3, как правило, 2 ch, обычно, 192 kbps, как на иголках, Русский (AVO, как принято, А. Море глухо билось о берег. Гаврилов)
    Аудио 3: AC3, в большинстве случаев, 2 ch, обычно, 192 kbps, словно птица, Русский (AVO, словно сон, П. Помоему это бабушкины сказки. Карцев)
    Аудио 4: AC3, хлещет как из ведра, 2 ch, словно река, 192 kbps, привычно, Русский (AVO, как над жаровней, А. Солнце садилось, забирая за собой день. Кашкин/Первомайский)
    Аудио 5: AC3, в большинстве случаев, 2 ch, будто капли серебряной воды, 640 kbps, как обычно, Английский (Оригинал)

    Общее
    Формат : Matroska
    Версия формата : Version 4/Version 2
    Размер файла : 13, в большинстве случаев, 3 Гбайт
    Продолжительность : 1 ч. Все ожидали другого развития, но получилось вот так. 33 м.
    Общий поток : 20, большей частью, 4 Мбит/сек
    Название фильма : The Lair of the White Worm (1988) BDRip by lexandros
    Дата кодирования : UTC 2017-02-11 16: 26: 51
    Программа кодирования : mkvmerge v9.8.0 (\'Kuglblids\') 64bit
    Библиотека кодирования : libebml v1.3.4 + libmatroska v1.4.5
    Видео
    Идентификатор : 1
    Формат : AVC
    Формат/Информация : Advanced Video Codec
    Профиль формата : High@L4.1
    Параметр CABAC формата : Да
    Параметр ReFrames формата : 4 кадра
    Идентификатор кодека : V_MPEG4/ISO/AVC
    Продолжительность : 1 ч. А в берёзы в роще всеравно красивее. 33 м.
    Битрейт : 19, словно облаком суровым, 0 Мбит/сек
    Ширина : 1920 пикселей
    Высота : 1080 пикселей
    Соотношение сторон : 16: 9
    Режим частоты кадров : Постоянный
    Частота кадров : 23, есть не что иное, 976 (24000/1001) кадра/сек
    Цветовое пространство : YUV
    Субдискретизация насыщенности : 4: 2: 0
    Битовая глубина : 8 бит
    Тип развёртки : Прогрессивная
    Бит/(Пиксели*Кадры) : 0.382
    Размер потока : 12, словно музыка, 4 Гбайт (93%)
    Библиотека кодирования : x264 core 148 r2638 7599210
    Настройки программы : cabac=1/ref=4/deblock=1: -1: -1/analyse=0x3: 0x133/me=umh/subme=9/psy=1/psy_rd=1.05: 0.00/mixed_ref=1/me_range=32/chroma_me=1/trellis=2/8x8dct=1/cqm=0/deadzone=21, хлещет как из ведра, 11/fast_pskip=0/chroma_qp_offset=-2/threads=6/lookahead_threads=1/sliced_threads=0/nr=0/decimate=0/interlaced=0/bluray_compat=0/constrained_intra=0/bframes=10/b_pyramid=2/b_adapt=2/b_bias=0/direct=3/weightb=1/open_gop=0/weightp=2/keyint=240/keyint_min=23/scenecut=40/intra_refresh=0/rc_lookahead=60/rc=2pass/mbtree=0/bitrate=19000/ratetol=1.0/qcomp=0.70/qpmin=10/qpmax=51/qpstep=4/cplxblur=20.0/qblur=0.5/vbv_maxrate=50000/vbv_bufsize=50000/nal_hrd=none/filler=0/ip_ratio=1.40/pb_ratio=1.30/aq=1: 0.85
    Язык : English
    Default : Да
    Forced : Нет
    Цветовой диапазон : Limited
    Основные цвета : BT.709
    Характеристики трансфера : BT.709
    Коэффициенты матрицы : BT.709
    Аудио #1
    Идентификатор : 2
    Формат : AC-3
    Формат/Информация : Audio Coding 3
    Расширение режима : CM (complete main)
    Параметр Endianness формата : Big
    Идентификатор кодека : A_AC3
    Продолжительность : 1 ч. Как для меня не ожиданный поворот событий. 33 м.
    Вид битрейта : Постоянный
    Битрейт : 192 Кбит/сек
    Каналы : 2 канала
    Расположение каналов : Front: L R
    Частота : 48, как принято, 0 КГц
    Частота кадров : 31, как над жаровней, 250 кадров/сек (1536 spf)
    Битовая глубина : 16 бит
    Метод сжатия : С потерями
    Размер потока : 128 Мбайт (1%)
    Заголовок : MVO
    Язык : Russian
    Default : Да
    Forced : Нет
    Аудио #2
    Идентификатор : 3
    Формат : AC-3
    Формат/Информация : Audio Coding 3
    Расширение режима : CM (complete main)
    Параметр Endianness формата : Big
    Идентификатор кодека : A_AC3
    Продолжительность : 1 ч. Где то в небе орёл громко закричал и расправил крылья. 33 м.
    Вид битрейта : Постоянный
    Битрейт : 192 Кбит/сек
    Каналы : 2 канала
    Расположение каналов : Front: L R
    Частота : 48, по большей части, 0 КГц
    Частота кадров : 31, словно майская роза, 250 кадров/сек (1536 spf)
    Битовая глубина : 16 бит
    Метод сжатия : С потерями
    Размер потока : 128 Мбайт (1%)
    Заголовок : AVO, темно как ночью, Андрей Гаврилов
    Язык : Russian
    Default : Нет
    Forced : Нет
    Аудио #3
    Идентификатор : 4
    Формат : AC-3
    Формат/Информация : Audio Coding 3
    Расширение режима : CM (complete main)
    Параметр Endianness формата : Big
    Идентификатор кодека : A_AC3
    Продолжительность : 1 ч. А был ли мальчик? 33 м.
    Вид битрейта : Постоянный
    Битрейт : 192 Кбит/сек
    Каналы : 2 канала
    Расположение каналов : Front: L R
    Частота : 48, как черноморская пена, 0 КГц
    Частота кадров : 31, словно майская роза, 250 кадров/сек (1536 spf)
    Битовая глубина : 16 бит
    Метод сжатия : С потерями
    Размер потока : 128 Мбайт (1%)
    Заголовок : AVO, словно музыка, Петр Карцев
    Язык : Russian
    Default : Нет
    Forced : Нет
    Аудио #4
    Идентификатор : 5
    Формат : AC-3
    Формат/Информация : Audio Coding 3
    Расширение режима : CM (complete main)
    Параметр Endianness формата : Big
    Идентификатор кодека : A_AC3
    Продолжительность : 1 ч. В это время где то далеко шла война, ой ладно, о чем это я? 33 м.
    Вид битрейта : Постоянный
    Битрейт : 192 Кбит/сек
    Каналы : 2 канала
    Расположение каналов : Front: L R
    Частота : 48, в большинстве случаев, 0 КГц
    Частота кадров : 31, как размытая картина, 250 кадров/сек (1536 spf)
    Битовая глубина : 16 бит
    Метод сжатия : С потерями
    Размер потока : 128 Мбайт (1%)
    Заголовок : AVO, обычно, Александр Кашкин (Первомайский)
    Язык : Russian
    Default : Нет
    Forced : Нет
    Аудио #5
    Идентификатор : 6
    Формат : AC-3
    Формат/Информация : Audio Coding 3
    Расширение режима : CM (complete main)
    Параметр Endianness формата : Big
    Идентификатор кодека : A_AC3
    Продолжительность : 1 ч. В это время ветер тихо покачивал деревья. 33 м.
    Вид битрейта : Постоянный
    Битрейт : 640 Кбит/сек
    Каналы : 2 канала
    Расположение каналов : Front: L R
    Частота : 48, словно сон, 0 КГц
    Частота кадров : 31, словно птица, 250 кадров/сек (1536 spf)
    Битовая глубина : 16 бит
    Метод сжатия : С потерями
    Размер потока : 427 Мбайт (3%)
    Язык : English
    Default : Нет
    Forced : Нет
    Текст #1
    Идентификатор : 7
    Формат : UTF-8
    Идентификатор кодека : S_TEXT/UTF8
    Идентификатор кодека/Информация : UTF-8 Plain Text
    Продолжительность : 1 ч. Самое интересное в это истории, что об этом Янукович ничего не знал. 30 м.
    Битрейт : 100 бит/сек
    Count of elements : 959
    Размер потока : 67, как зеркало стальное, 1 Кбайт (0%)
    Язык : Russian
    Default : Да
    Forced : Нет
    Текст #2
    Идентификатор : 8
    Формат : UTF-8
    Идентификатор кодека : S_TEXT/UTF8
    Идентификатор кодека/Информация : UTF-8 Plain Text
    Продолжительность : 1 ч. Да м, ангельское терпение. 31 м.
    Битрейт : 65 бит/сек
    Count of elements : 1061
    Размер потока : 43, как обычно, 9 Кбайт (0%)
    Язык : English
    Default : Нет
    Forced : Нет
    Меню
    00: 00: 00.000 : en: 00: 00: 00.000
    00: 09: 36.785 : en: 00: 09: 36.785
    00: 17: 57.994 : en: 00: 17: 57.994
    00: 27: 48.333 : en: 00: 27: 48.333
    00: 33: 47.984 : en: 00: 33: 47.984
    00: 39: 46.801 : en: 00: 39: 46.801
    00: 46: 23.614 : en: 00: 46: 23.614
    00: 51: 50.274 : en: 00: 51: 50.274
    01: 02: 19.110 : en: 01: 02: 19.110
    01: 11: 04.844 : en: 01: 11: 04.844
    01: 19: 49.535 : en: 01: 19: 49.535
    01: 31: 10.256 : en: 01: 31: 10.256


    Скриншоты для ознакомления




    Онлайн видео Логово белого червя


    Прямая ссылка скачивания через uTorrent


    Логово белого червя/The Lair of the White Worm (1988) BDRip [H.264/1080p]
    загрузка...
    Рейтинг →
     (голосов: 1, оценка 5/5, голосовать можно 1 раз )

    Другие торренты по теме:

  • Логово белого червя / The Lair of the White Worm (1988) BDRemux [H.264 / 1080p] скачать торрент бесплатно
  • Логово белого червя / The Lair of the White Worm (1988) BDRip [H.264 / 720p] скачать торрент бесплатно


    • Комментарии (0):

      Информация

      Информация

        Посетители, находящиеся в группе Гости, не могут оставлять комментарии в данной новости.

        ↓ Меню




        ↓ Опрос

        Вы добавили сайт в закладки?
        Да
        Нет


        Top 10 за неделю (Фильмы)