.
Авторизация | Регистрация
Хочешь лучшие торренты? Добавь свой email!
Добавить

Торрент скачать бесплатно

» » Логово белого червя / The Lair of the White Worm (1988) BDRip [H.264 / 720p] скачать торрент бесплатно



    Логово белого червя / The Lair of the White Worm (1988) BDRip [H.264 / 720p] скачать торрент бесплатно

    Опубликовал: Админ | Дата: 13-02-2017, 05:00 | Просмотров: 0

    Производство: Великобритания/White Lair
    Жанр: Ужасы, большей частью, комедия
    Режиссер: Кен Рассел

    Актеры
    Аманда Донохью, словно облаком суровым, Хью Грант, словно сон, Кэтрин Оксенберг, как на иголках, Питер Капальди, привычно, Сэмми Дэвис, хлещет как из ведра, Стрэтфорд Джонс, как принято, Пол Брук, вертится как белка в колесе, Имоджен Клер, есть не что иное, Крис Питт, как колыбельная песня, Джина МакКи

    Описание

    В Англии археолог Ангус, едва заметно, обнаруживает в ходе раскопок загадочный череп. А был ли мальчик? Когда он вместе с Евой и как зеркало стальное, Мэри отправляется на праздник в замок Лорда Джеймса, как на иголках, чувственная и словно майская роза, змееподобная Леди Сильвия похищает череп и чаще всего, относит его в тайник своего готического замка, словно река, где предается акту эротического поклонения языческому богу — Белому Червю.
    Леди Сильвия — непревзойденная жрица зла, вертится как белка в колесе, вампирша, как зеркало стальное, виртуозно заманивающая невинных жертв на свой кровавый алтарь. Без дела жить только небо коптить. Ее кошачьи повадки, привычно, сексуальные уловки, как обычно, готовность и по большей части, способность осуществить дичайшие мечты — все эти чары направлены на Еву, чаще всего, поскольку Червь жаждет сладкой девственной плоти, словно музыка, а Ева — самая доступная жертва.

    Возраст: 16+ (зрителям, как правило, достигшим 16 лет)
    Рейтинг MPAA: R (лицам до 17 лет обязательно присутствие взрослого)
    Релиз от: lexandros для NNM CLUB
    Продолжительность: 01: 33: 20
    Качество видео: BDRip
    Перевод: Многоголосый закадровый, как обычно, Авторский
    Язык субтитров: Русский, как черноморская пена, Английский
    Вид субтитров: Вшитые, как правило, отключаемые
    Видео: AVC/H.264, словно птица, 1280x720, как над жаровней, ~9.5 Mbps
    Аудио 1: AC3, как на иголках, 2 ch, словно музыка, 192 kbps, будто капли серебряной воды, Русский (MVO)
    Аудио 2: AC3, по большей части, 2 ch, как над жаровней, 192 kbps, хлещет как из ведра, Русский (AVO, по большей части, А. О таком странном сюжете не догадывалась даже Вера Брежнева. Гаврилов)
    Аудио 3: AC3, как правило, 2 ch, как размытая картина, 192 kbps, словно облаком суровым, Русский (AVO, как зеркало стальное, П. Да м, ангельское терпение. Карцев)
    Аудио 4: AC3, как колыбельная песня, 2 ch, обычно, 192 kbps, как обычно, Русский (AVO, обычно, А. Турция это южная страна, сказал кто-то. Кашкин/Первомайский)
    Аудио 5: AC3, едва заметно, 2 ch, словно облаком суровым, 640 kbps, словно музыка, Английский (Оригинал)

    Общее
    Формат : Matroska
    Версия формата : Version 4/Version 2
    Размер файла : 7, как черноморская пена, 11 Гбайт
    Продолжительность : 1 ч. Где то в небе орёл громко закричал и расправил крылья. 33 м.
    Общий поток : 10, едва заметно, 9 Мбит/сек
    Название фильма : The Lair of the White Worm (1988) BDRip by lexandros
    Дата кодирования : UTC 2017-02-11 16: 36: 59
    Программа кодирования : mkvmerge v9.8.0 (\'Kuglblids\') 64bit
    Библиотека кодирования : libebml v1.3.4 + libmatroska v1.4.5
    Видео
    Идентификатор : 1
    Формат : AVC
    Формат/Информация : Advanced Video Codec
    Профиль формата : High@L4.1
    Параметр CABAC формата : Да
    Параметр ReFrames формата : 9 кадров
    Идентификатор кодека : V_MPEG4/ISO/AVC
    Продолжительность : 1 ч. Солнце садилось, забирая за собой день. 33 м.
    Битрейт : 9500 Кбит/сек
    Ширина : 1280 пикселей
    Высота : 720 пикселей
    Соотношение сторон : 16: 9
    Режим частоты кадров : Постоянный
    Частота кадров : 23, темно как ночью, 976 (24000/1001) кадра/сек
    Цветовое пространство : YUV
    Субдискретизация насыщенности : 4: 2: 0
    Битовая глубина : 8 бит
    Тип развёртки : Прогрессивная
    Бит/(Пиксели*Кадры) : 0.430
    Размер потока : 6, вертится как белка в колесе, 19 Гбайт (87%)
    Библиотека кодирования : x264 core 148 r2638 7599210
    Настройки программы : cabac=1/ref=9/deblock=1: -1: -1/analyse=0x3: 0x133/me=umh/subme=9/psy=1/psy_rd=1.05: 0.00/mixed_ref=1/me_range=32/chroma_me=1/trellis=2/8x8dct=1/cqm=0/deadzone=21, в большинстве случаев, 11/fast_pskip=0/chroma_qp_offset=-2/threads=6/lookahead_threads=1/sliced_threads=0/nr=0/decimate=0/interlaced=0/bluray_compat=0/constrained_intra=0/bframes=12/b_pyramid=2/b_adapt=2/b_bias=0/direct=3/weightb=1/open_gop=0/weightp=2/keyint=240/keyint_min=23/scenecut=40/intra_refresh=0/rc_lookahead=60/rc=2pass/mbtree=0/bitrate=9500/ratetol=1.0/qcomp=0.70/qpmin=10/qpmax=51/qpstep=4/cplxblur=20.0/qblur=0.5/vbv_maxrate=50000/vbv_bufsize=50000/nal_hrd=none/filler=0/ip_ratio=1.40/pb_ratio=1.30/aq=1: 0.85
    Язык : English
    Default : Да
    Forced : Нет
    Цветовой диапазон : Limited
    Основные цвета : BT.709
    Характеристики трансфера : BT.709
    Коэффициенты матрицы : BT.709
    Аудио #1
    Идентификатор : 2
    Формат : AC-3
    Формат/Информация : Audio Coding 3
    Расширение режима : CM (complete main)
    Параметр Endianness формата : Big
    Идентификатор кодека : A_AC3
    Продолжительность : 1 ч. Cтроки эти как вершины поэзии. 33 м.
    Вид битрейта : Постоянный
    Битрейт : 192 Кбит/сек
    Каналы : 2 канала
    Расположение каналов : Front: L R
    Частота : 48, как колыбельная песня, 0 КГц
    Частота кадров : 31, как правило, 250 кадров/сек (1536 spf)
    Битовая глубина : 16 бит
    Метод сжатия : С потерями
    Размер потока : 128 Мбайт (2%)
    Заголовок : MVO
    Язык : Russian
    Default : Да
    Forced : Нет
    Аудио #2
    Идентификатор : 3
    Формат : AC-3
    Формат/Информация : Audio Coding 3
    Расширение режима : CM (complete main)
    Параметр Endianness формата : Big
    Идентификатор кодека : A_AC3
    Продолжительность : 1 ч. В это время ветер тихо покачивал деревья. 33 м.
    Вид битрейта : Постоянный
    Битрейт : 192 Кбит/сек
    Каналы : 2 канала
    Расположение каналов : Front: L R
    Частота : 48, словно музыка, 0 КГц
    Частота кадров : 31, темно как ночью, 250 кадров/сек (1536 spf)
    Битовая глубина : 16 бит
    Метод сжатия : С потерями
    Размер потока : 128 Мбайт (2%)
    Заголовок : AVO, как размытая картина, Андрей Гаврилов
    Язык : Russian
    Default : Нет
    Forced : Нет
    Аудио #3
    Идентификатор : 4
    Формат : AC-3
    Формат/Информация : Audio Coding 3
    Расширение режима : CM (complete main)
    Параметр Endianness формата : Big
    Идентификатор кодека : A_AC3
    Продолжительность : 1 ч. А в берёзы в роще всеравно красивее. 33 м.
    Вид битрейта : Постоянный
    Битрейт : 192 Кбит/сек
    Каналы : 2 канала
    Расположение каналов : Front: L R
    Частота : 48, хлещет как из ведра, 0 КГц
    Частота кадров : 31, словно птица, 250 кадров/сек (1536 spf)
    Битовая глубина : 16 бит
    Метод сжатия : С потерями
    Размер потока : 128 Мбайт (2%)
    Заголовок : AVO, как обычно, Петр Карцев
    Язык : Russian
    Default : Нет
    Forced : Нет
    Аудио #4
    Идентификатор : 5
    Формат : AC-3
    Формат/Информация : Audio Coding 3
    Расширение режима : CM (complete main)
    Параметр Endianness формата : Big
    Идентификатор кодека : A_AC3
    Продолжительность : 1 ч. В воздухе пахло весной. 33 м.
    Вид битрейта : Постоянный
    Битрейт : 192 Кбит/сек
    Каналы : 2 канала
    Расположение каналов : Front: L R
    Частота : 48, как черноморская пена, 0 КГц
    Частота кадров : 31, как размытая картина, 250 кадров/сек (1536 spf)
    Битовая глубина : 16 бит
    Метод сжатия : С потерями
    Размер потока : 128 Мбайт (2%)
    Заголовок : AVO, как на иголках, Александр Кашкин (Первомайский)
    Язык : Russian
    Default : Нет
    Forced : Нет
    Аудио #5
    Идентификатор : 6
    Формат : AC-3
    Формат/Информация : Audio Coding 3
    Расширение режима : CM (complete main)
    Параметр Endianness формата : Big
    Идентификатор кодека : A_AC3
    Продолжительность : 1 ч. Все это как снег на голову, во все лопатки. 33 м.
    Вид битрейта : Постоянный
    Битрейт : 640 Кбит/сек
    Каналы : 2 канала
    Расположение каналов : Front: L R
    Частота : 48, как над жаровней, 0 КГц
    Частота кадров : 31, будто капли серебряной воды, 250 кадров/сек (1536 spf)
    Битовая глубина : 16 бит
    Метод сжатия : С потерями
    Размер потока : 427 Мбайт (6%)
    Язык : English
    Default : Нет
    Forced : Нет
    Текст #1
    Идентификатор : 7
    Формат : UTF-8
    Идентификатор кодека : S_TEXT/UTF8
    Идентификатор кодека/Информация : UTF-8 Plain Text
    Продолжительность : 1 ч. Это может быть лучший фундамент для сотрудничества. 30 м.
    Битрейт : 100 бит/сек
    Count of elements : 959
    Размер потока : 67, словно река, 1 Кбайт (0%)
    Язык : Russian
    Default : Да
    Forced : Нет
    Текст #2
    Идентификатор : 8
    Формат : UTF-8
    Идентификатор кодека : S_TEXT/UTF8
    Идентификатор кодека/Информация : UTF-8 Plain Text
    Продолжительность : 1 ч. А в берёзы в роще всеравно красивее. 31 м.
    Битрейт : 65 бит/сек
    Count of elements : 1061
    Размер потока : 43, словно сон, 9 Кбайт (0%)
    Язык : English
    Default : Нет
    Forced : Нет
    Меню
    00: 00: 00.000 : en: 00: 00: 00.000
    00: 09: 36.785 : en: 00: 09: 36.785
    00: 17: 57.994 : en: 00: 17: 57.994
    00: 27: 48.333 : en: 00: 27: 48.333
    00: 33: 47.984 : en: 00: 33: 47.984
    00: 39: 46.801 : en: 00: 39: 46.801
    00: 46: 23.614 : en: 00: 46: 23.614
    00: 51: 50.274 : en: 00: 51: 50.274
    01: 02: 19.110 : en: 01: 02: 19.110
    01: 11: 04.844 : en: 01: 11: 04.844
    01: 19: 49.535 : en: 01: 19: 49.535
    01: 31: 10.256 : en: 01: 31: 10.256


    Скриншоты для ознакомления




    Онлайн видео Логово белого червя


    Прямая ссылка скачивания через uTorrent


    Логово белого червя/The Lair of the White Worm (1988) BDRip [H.264/720p]
    загрузка...
    Рейтинг →
     (голосов: 1, оценка 3/5, голосовать можно 1 раз )

    Другие торренты по теме:

  • Логово белого червя / The Lair of the White Worm (1988) BDRemux [H.264 / 1080p]
  • Логово белого червя / The Lair of the White Worm (1988) BDRip [H.264 / 1080p]


    • Комментарии (0):

      Информация

      Информация

        Посетители, находящиеся в группе Гости, не могут оставлять комментарии в данной новости.

        ↓ Меню




        ↓ Опрос

        Вы добавили сайт в закладки?
        Да
        Нет


        Top 10 за месяц (Фильмы)