.
Авторизация | Регистрация
Хочешь лучшие торренты? Добавь свой email!
Добавить

Торрент скачать бесплатно

» » Логово белого червя / The Lair of the White Worm (1988) BDRip [H.264 / 720p] торрент скачать бесплатно



    Логово белого червя / The Lair of the White Worm (1988) BDRip [H.264 / 720p] торрент скачать бесплатно

    Опубликовал: Админ | Дата: 13-02-2017, 05:00 | Просмотров: 0

    Производство: Великобритания/White Lair
    Жанр: Ужасы, комедия
    Режиссер: Кен Рассел

    Актеры
    Аманда Донохью, Хью Грант, Кэтрин Оксенберг, Питер Капальди, Сэмми Дэвис, Стрэтфорд Джонс, Пол Брук, Имоджен Клер, Крис Питт, Джина МакКи

    Описание

    В Англии археолог Ангус, обнаруживает в ходе раскопок загадочный череп. Когда он вместе с Евой и Мэри отправляется на праздник в замок Лорда Джеймса, чувственная и змееподобная Леди Сильвия похищает череп и относит его в тайник своего готического замка, где предается акту эротического поклонения языческому богу — Белому Червю.
    Леди Сильвия — непревзойденная жрица зла, вампирша, виртуозно заманивающая невинных жертв на свой кровавый алтарь. Ее кошачьи повадки, сексуальные уловки, готовность и способность осуществить дичайшие мечты — все эти чары направлены на Еву, поскольку Червь жаждет сладкой девственной плоти, а Ева — самая доступная жертва.

    Возраст: 16+ (зрителям, достигшим 16 лет)
    Рейтинг MPAA: R (лицам до 17 лет обязательно присутствие взрослого)
    Релиз от: lexandros для NNM CLUB
    Продолжительность: 01: 33: 20
    Качество видео: BDRip
    Перевод: Многоголосый закадровый, Авторский
    Язык субтитров: Русский, Английский
    Вид субтитров: Вшитые, отключаемые
    Видео: AVC/H.264, 1280x720, ~9.5 Mbps
    Аудио 1: AC3, 2 ch, 192 kbps, Русский (MVO)
    Аудио 2: AC3, 2 ch, 192 kbps, Русский (AVO, А. О таком странном сюжете не догадывалась даже Вера Брежнева. Гаврилов)
    Аудио 3: AC3, 2 ch, 192 kbps, Русский (AVO, П. Карцев)
    Аудио 4: AC3, 2 ch, 192 kbps, Русский (AVO, А. Кашкин/Первомайский)
    Аудио 5: AC3, 2 ch, 640 kbps, Английский (Оригинал)

    Общее
    Формат : Matroska
    Версия формата : Version 4/Version 2
    Размер файла : 7, 11 Гбайт
    Продолжительность : 1 ч. 33 м.
    Общий поток : 10, 9 Мбит/сек
    Название фильма : The Lair of the White Worm (1988) BDRip by lexandros
    Дата кодирования : UTC 2017-02-11 16: 36: 59
    Программа кодирования : mkvmerge v9.8.0 (\'Kuglblids\') 64bit
    Библиотека кодирования : libebml v1.3.4 + libmatroska v1.4.5
    Видео
    Идентификатор : 1
    Формат : AVC
    Формат/Информация : Advanced Video Codec
    Профиль формата : High@L4.1
    Параметр CABAC формата : Да
    Параметр ReFrames формата : 9 кадров
    Идентификатор кодека : V_MPEG4/ISO/AVC
    Продолжительность : 1 ч. 33 м.
    Битрейт : 9500 Кбит/сек
    Ширина : 1280 пикселей
    Высота : 720 пикселей
    Соотношение сторон : 16: 9
    Режим частоты кадров : Постоянный
    Частота кадров : 23, 976 (24000/1001) кадра/сек
    Цветовое пространство : YUV
    Субдискретизация насыщенности : 4: 2: 0
    Битовая глубина : 8 бит
    Тип развёртки : Прогрессивная
    Бит/(Пиксели*Кадры) : 0.430
    Размер потока : 6, 19 Гбайт (87%)
    Библиотека кодирования : x264 core 148 r2638 7599210
    Настройки программы : cabac=1/ref=9/deblock=1: -1: -1/analyse=0x3: 0x133/me=umh/subme=9/psy=1/psy_rd=1.05: 0.00/mixed_ref=1/me_range=32/chroma_me=1/trellis=2/8x8dct=1/cqm=0/deadzone=21, 11/fast_pskip=0/chroma_qp_offset=-2/threads=6/lookahead_threads=1/sliced_threads=0/nr=0/decimate=0/interlaced=0/bluray_compat=0/constrained_intra=0/bframes=12/b_pyramid=2/b_adapt=2/b_bias=0/direct=3/weightb=1/open_gop=0/weightp=2/keyint=240/keyint_min=23/scenecut=40/intra_refresh=0/rc_lookahead=60/rc=2pass/mbtree=0/bitrate=9500/ratetol=1.0/qcomp=0.70/qpmin=10/qpmax=51/qpstep=4/cplxblur=20.0/qblur=0.5/vbv_maxrate=50000/vbv_bufsize=50000/nal_hrd=none/filler=0/ip_ratio=1.40/pb_ratio=1.30/aq=1: 0.85
    Язык : English
    Default : Да
    Forced : Нет
    Цветовой диапазон : Limited
    Основные цвета : BT.709
    Характеристики трансфера : BT.709
    Коэффициенты матрицы : BT.709
    Аудио #1
    Идентификатор : 2
    Формат : AC-3
    Формат/Информация : Audio Coding 3
    Расширение режима : CM (complete main)
    Параметр Endianness формата : Big
    Идентификатор кодека : A_AC3
    Продолжительность : 1 ч. 33 м.
    Вид битрейта : Постоянный
    Битрейт : 192 Кбит/сек
    Каналы : 2 канала
    Расположение каналов : Front: L R
    Частота : 48, 0 КГц
    Частота кадров : 31, 250 кадров/сек (1536 spf)
    Битовая глубина : 16 бит
    Метод сжатия : С потерями
    Размер потока : 128 Мбайт (2%)
    Заголовок : MVO
    Язык : Russian
    Default : Да
    Forced : Нет
    Аудио #2
    Идентификатор : 3
    Формат : AC-3
    Формат/Информация : Audio Coding 3
    Расширение режима : CM (complete main)
    Параметр Endianness формата : Big
    Идентификатор кодека : A_AC3
    Продолжительность : 1 ч. 33 м.
    Вид битрейта : Постоянный
    Битрейт : 192 Кбит/сек
    Каналы : 2 канала
    Расположение каналов : Front: L R
    Частота : 48, 0 КГц
    Частота кадров : 31, 250 кадров/сек (1536 spf)
    Битовая глубина : 16 бит
    Метод сжатия : С потерями
    Размер потока : 128 Мбайт (2%)
    Заголовок : AVO, Андрей Гаврилов
    Язык : Russian
    Default : Нет
    Forced : Нет
    Аудио #3
    Идентификатор : 4
    Формат : AC-3
    Формат/Информация : Audio Coding 3
    Расширение режима : CM (complete main)
    Параметр Endianness формата : Big
    Идентификатор кодека : A_AC3
    Продолжительность : 1 ч. 33 м.
    Вид битрейта : Постоянный
    Битрейт : 192 Кбит/сек
    Каналы : 2 канала
    Расположение каналов : Front: L R
    Частота : 48, 0 КГц
    Частота кадров : 31, 250 кадров/сек (1536 spf)
    Битовая глубина : 16 бит
    Метод сжатия : С потерями
    Размер потока : 128 Мбайт (2%)
    Заголовок : AVO, Петр Карцев
    Язык : Russian
    Default : Нет
    Forced : Нет
    Аудио #4
    Идентификатор : 5
    Формат : AC-3
    Формат/Информация : Audio Coding 3
    Расширение режима : CM (complete main)
    Параметр Endianness формата : Big
    Идентификатор кодека : A_AC3
    Продолжительность : 1 ч. 33 м.
    Вид битрейта : Постоянный
    Битрейт : 192 Кбит/сек
    Каналы : 2 канала
    Расположение каналов : Front: L R
    Частота : 48, 0 КГц
    Частота кадров : 31, 250 кадров/сек (1536 spf)
    Битовая глубина : 16 бит
    Метод сжатия : С потерями
    Размер потока : 128 Мбайт (2%)
    Заголовок : AVO, Александр Кашкин (Первомайский)
    Язык : Russian
    Default : Нет
    Forced : Нет
    Аудио #5
    Идентификатор : 6
    Формат : AC-3
    Формат/Информация : Audio Coding 3
    Расширение режима : CM (complete main)
    Параметр Endianness формата : Big
    Идентификатор кодека : A_AC3
    Продолжительность : 1 ч. 33 м.
    Вид битрейта : Постоянный
    Битрейт : 640 Кбит/сек
    Каналы : 2 канала
    Расположение каналов : Front: L R
    Частота : 48, 0 КГц
    Частота кадров : 31, 250 кадров/сек (1536 spf)
    Битовая глубина : 16 бит
    Метод сжатия : С потерями
    Размер потока : 427 Мбайт (6%)
    Язык : English
    Default : Нет
    Forced : Нет
    Текст #1
    Идентификатор : 7
    Формат : UTF-8
    Идентификатор кодека : S_TEXT/UTF8
    Идентификатор кодека/Информация : UTF-8 Plain Text
    Продолжительность : 1 ч. 30 м.
    Битрейт : 100 бит/сек
    Count of elements : 959
    Размер потока : 67, 1 Кбайт (0%)
    Язык : Russian
    Default : Да
    Forced : Нет
    Текст #2
    Идентификатор : 8
    Формат : UTF-8
    Идентификатор кодека : S_TEXT/UTF8
    Идентификатор кодека/Информация : UTF-8 Plain Text
    Продолжительность : 1 ч. 31 м.
    Битрейт : 65 бит/сек
    Count of elements : 1061
    Размер потока : 43, 9 Кбайт (0%)
    Язык : English
    Default : Нет
    Forced : Нет
    Меню
    00: 00: 00.000 : en: 00: 00: 00.000
    00: 09: 36.785 : en: 00: 09: 36.785
    00: 17: 57.994 : en: 00: 17: 57.994
    00: 27: 48.333 : en: 00: 27: 48.333
    00: 33: 47.984 : en: 00: 33: 47.984
    00: 39: 46.801 : en: 00: 39: 46.801
    00: 46: 23.614 : en: 00: 46: 23.614
    00: 51: 50.274 : en: 00: 51: 50.274
    01: 02: 19.110 : en: 01: 02: 19.110
    01: 11: 04.844 : en: 01: 11: 04.844
    01: 19: 49.535 : en: 01: 19: 49.535
    01: 31: 10.256 : en: 01: 31: 10.256


    Скриншоты для ознакомления




    Онлайн видео Логово белого червя


    Прямая ссылка скачивания через uTorrent


    Логово белого червя/The Lair of the White Worm (1988) BDRip [H.264/720p]
    загрузка...
    Рейтинг →
     (голосов: 1, оценка 3/5, голосовать можно 1 раз )

    Другие торренты по теме:

  • Логово белого червя / The Lair of the White Worm (1988) BDRemux [H.264 / 1080p]
  • Логово белого червя / The Lair of the White Worm (1988) BDRip [H.264 / 1080p]


    • Комментарии (0):

      Информация

      Информация

        Посетители, находящиеся в группе Гости, не могут оставлять комментарии в данной новости.

        ↓ Меню




        ↓ Опрос

        Вы добавили сайт в закладки?
        Да
        Нет


        Top 10 за месяц (Фильмы)