.
Авторизация | Регистрация
Хочешь лучшие торренты? Добавь свой email!
Добавить

Торрент скачать бесплатно

» » Человек-паук: Возвращение домой / Spider-Man: Homecoming (2017) WEBRip [H.264 / 1080p] [Трейлер] торрент скачать бесплатно



    Человек-паук: Возвращение домой / Spider-Man: Homecoming (2017) WEBRip [H.264 / 1080p] [Трейлер] торрент скачать бесплатно

    Опубликовал: Админ | Дата: 13-02-2017, 05:00 | Просмотров: 0

    Производство: США
    Жанр: Фантастика, Приключения, Боевик
    Режиссер: Джон Уоттс

    Актеры
    Том Холланд (II), Роберт Дауни-мл., Майкл Китон, Мариса Томей, Джон Фавро, Дональд Гловер, Логан Маршалл-Грин, Зендая, Тони Револори, Мартин Старр, Стэн Ли, Буким Вудбайн, Майкл Чернус, Абрахам Аттах, Танд Эйдебимп, Марта Келли

    Описание

    Казалось бы, Питер Паркер всего лишь обычный школьник, живущий в Нью-Йорке, и занимающийся абсолютно тем же, что и его многочисленные сверстники. Но это только обман зрения, ведь на самом деле, он обладает особыми способностями после того, как его укусил радиоактивный паук. Следуя кредо его дяди Бэна с великой силой приходит великая ответственность, Питер становится Человеком-пауком — героем, который пытается помогать людям.
    Но каково это быть героем в таком юном возрасте, особенно, когда ты находишься в мире, где существуют Мстители? Преследуемого подобными мыслями Человека-паука ждёт встреча с новым могущественным врагом, чьи действия могут уничтожить весь город.

    Дата мировой премьеры: 6 июля 2017
    Дата российской премьеры: 6 июля 2017, WDSSPR 3D
    Продолжительность: 00: 01: 43
    Качество видео: WEBRip
    Перевод: Дублированный
    Видео: AVC, 1920x1080 (16: 9), 23.976 fps, 18.0 Mbps (0.337 bit/pixel)
    Аудио: AC-3, 48.0 KHz, 6 ch, 448 Kbps, CBR

    General
    Unique ID : 109756350360095564435928748470536489885 (0x52924DDE6190919077101A74966FCB9D)
    Complete name : E: spider-man_homecoming_trl_rus_1080p.mkv
    Format : Matroska
    Format version : Version 4/Version 2
    File size : 215 MiB
    Duration : 1 min
    Overall bit rate : 17.5 Mb/s
    Writing application : Lavf55.37.101
    Writing library : Lavf55.37.101/Lavf55.37.101
    Video
    ID : 1
    Format : AVC
    Format/Info : Advanced Video Codec
    Format profile : Baseline@L4.1
    Format settings, CABAC : No
    Format settings, ReFrames : 1 frame
    Codec ID : V_MPEG4/ISO/AVC
    Duration : 1 min
    Bit rate : 16.7 Mb/s
    Nominal bit rate : 18.0 Mb/s
    Width : 1 920 pixels
    Height : 1 080 pixels
    Display aspect ratio : 16: 9
    Frame rate mode : Constant
    Frame rate : 23.976 FPS
    Color space : YUV
    Chroma subsampling : 4: 2: 0
    Bit depth : 8 bits
    Scan type : Progressive
    Bits/(Pixel*Frame) : 0.337
    Stream size : 206 MiB (95%)
    Writing library : x264 core 119
    Encoding settings : cabac=0/ref=1/deblock=0: 0: 0/analyse=0: 0/me=dia/subme=0/psy=1/psy_rd=1.00: 0.00/mixed_ref=0/me_range=16/chroma_me=1/trellis=0/8x8dct=0/cqm=0/deadzone=21, 11/fast_pskip=1/chroma_qp_offset=0/threads=4/sliced_threads=0/nr=0/decimate=1/interlaced=0/bluray_compat=0/constrained_intra=0/bframes=0/weightp=0/keyint=250/keyint_min=23/scenecut=0/intra_refresh=0/rc=abr/mbtree=0/bitrate=18000/ratetol=1.0/qcomp=0.60/qpmin=0/qpmax=69/qpstep=4/ip_ratio=1.40/aq=0
    Language : English
    Default : Yes
    Forced : No
    HANDLER_NAME : VideoHandler
    Audio
    ID : 2
    Format : AC-3
    Format/Info : Audio Coding 3
    Mode extension : CM (complete main)
    Format settings, Endianness : Big
    Codec ID : A_AC3
    Duration : 1 min
    Bit rate mode : Constant
    Bit rate : 448 kb/s
    Channel(s) : 6 channels
    Channel positions : Front: L C R, Side: L R, LFE
    Sampling rate : 48.0 kHz
    Frame rate : 31.250 FPS (1536 spf)
    Bit depth : 32 bits
    Compression mode : Lossy
    Delay relative to video : -47 ms
    Stream size : 5.50 MiB (3%)
    Language : English
    Default : Yes
    Forced : No
    HANDLER_NAME : SoundHandler


    Скриншоты для ознакомления




    Онлайн видео Человек-паук: Возвращение домой


    Прямая ссылка скачивания через uTorrent


    Человек-паук: Возвращение домой/Spider-Man: Homecoming (2017) WEBRip [H.264/1080p] [Трейлер]
    загрузка...
    Рейтинг →
     (голосов: 1, оценка 3/5, голосовать можно 1 раз )

    Другие торренты по теме:

  • Человек-паук: Возвращение домой / Spider-Man: Homecoming (2017) CAMRip [AD]
  • Человек-паук: Возвращение домой / Spider-Man: Homecoming (2017) CamRip [AD]
  • Человек-паук: Возвращение домой / Spider-Man: Homecoming (2017) TS [H.264 / 720p-LQ] [Звук с TS] [AD]
  • Человек-паук: Возвращение домой / Spider-Man: Homecoming (2017) WEB-DLRip [H.264 / 720p-LQ] [AD]
  • Человек-паук: Возвращение домой / Spider-Man: Homecoming (2017) WEB-DLRip [H.264 / 1080p-LQ] [Line] [AD]
  • Человек-паук: Возвращение домой / Spider-Man: Homecoming (2017) WEB-DLRip
  • Человек-паук: Возвращение домой / Spider-Man: Homecoming (2017) WEB-DL [H.264 / 1080p-LQ]
  • Человек-паук: Возвращение домой / Spider-Man: Homecoming (2017) WEB-DL [H.264 / 1080p-LQ] [EN / EN Sub]


    • Комментарии (0):

      Информация

      Информация

        Посетители, находящиеся в группе Гости, не могут оставлять комментарии в данной новости.

        ↓ Меню




        ↓ Опрос

        Вы добавили сайт в закладки?
        Да
        Нет


        Top 10 за месяц (Фильмы)