.
Авторизация | Регистрация
Хочешь лучшие торренты? Добавь свой email!
Добавить

Торрент скачать бесплатно

» » Чужой: Завет / Alien: Covenant (2017) WEBRip [H.264 / 1080p] [Трейлер] скачать торрент бесплатно



    Чужой: Завет / Alien: Covenant (2017) WEBRip [H.264 / 1080p] [Трейлер] скачать торрент бесплатно

    Опубликовал: Админ | Дата: 13-02-2017, 05:00 | Просмотров: 0

    Производство: США, как над жаровней, Австралия, как черноморская пена, Новая Зеландия
    Жанр: Фантастика, большей частью, Ужасы, по большей части, Боевик
    Режиссер: Ридли Скотт

    Актеры
    Майкл Фассбендер, привычно, Кэтрин Уотерстон, темно как ночью, Билли Крадап, вертится как белка в колесе, Дэнни МакБрайд (I), словно музыка, Демиан Бичир, темно как ночью, Джусси Смоллетт, едва заметно, Кармен Эджого, как правило, Кэлли Эрнандес, большей частью, Эми Сеймец

    Описание

    Выжившие члены команды Прометея Элизабет и обычно, андроид Дэвид сделали первый шаг навстречу разгадке тайны инженеров. Рядом пронесли цветы в корзинах. Теперь пришло время узнать остальную правду, чаще всего, которая укрыта на родной планете белесых великанов — Рай.

    Возраст: 18+ (зрителям, в большинстве случаев, достигшим 18 лет. Помоему это бабушкины сказки. запрещено для детей)
    Рейтинг MPAA: R (лицам до 17 лет обязательно присутствие взрослого)
    Дата мировой премьеры: 10 мая 2017
    Дата российской премьеры: 18 мая 2017, как обычно, Двадцатый Век Фокс СНГ
    Продолжительность: 00: 02: 15
    Качество видео: WEBRip
    Перевод: Дублированный
    Видео: AVC, будто капли серебряной воды, 1920x1080 (16: 9), большей частью, 23.976 fps, чаще всего, 18.0 Mbps (0.330 bit/pixel)
    Аудио: AC-3, словно майская роза, 48.0 KHz, словно музыка, 6 ch, как принято, 448 Kbps, как обычно, CBR

    General
    Unique ID : 51713264392261462740658345814202468358 (0x26E79CC8F77382DCBCF28893B1B74806)
    Complete name : E: Alien.2017.TRL_RUS.mkv
    Format : Matroska
    Format version : Version 4/Version 2
    File size : 276 MiB
    Duration : 2 min
    Overall bit rate : 17.2 Mb/s
    Writing application : Lavf55.37.101
    Writing library : Lavf55.37.101/Lavf55.37.101
    Video
    ID : 1
    Format : AVC
    Format/Info : Advanced Video Codec
    Format profile : Baseline@L4.1
    Format settings, как обычно, CABAC : No
    Format settings, как колыбельная песня, ReFrames : 1 frame
    Codec ID : V_MPEG4/ISO/AVC
    Duration : 2 min
    Bit rate : 16.4 Mb/s
    Nominal bit rate : 18.0 Mb/s
    Width : 1 920 pixels
    Height : 1 080 pixels
    Display aspect ratio : 16: 9
    Frame rate mode : Constant
    Frame rate : 23.976 (24000/1001) FPS
    Color space : YUV
    Chroma subsampling : 4: 2: 0
    Bit depth : 8 bits
    Scan type : Progressive
    Bits/(Pixel*Frame) : 0.330
    Stream size : 263 MiB (95%)
    Writing library : x264 core 119
    Encoding settings : cabac=0/ref=1/deblock=0: 0: 0/analyse=0: 0/me=dia/subme=0/psy=1/psy_rd=1.00: 0.00/mixed_ref=0/me_range=16/chroma_me=1/trellis=0/8x8dct=0/cqm=0/deadzone=21, как зеркало стальное, 11/fast_pskip=1/chroma_qp_offset=0/threads=4/sliced_threads=0/nr=0/decimate=1/interlaced=0/bluray_compat=0/constrained_intra=0/bframes=0/weightp=0/keyint=250/keyint_min=23/scenecut=0/intra_refresh=0/rc=abr/mbtree=0/bitrate=18000/ratetol=1.0/qcomp=0.60/qpmin=0/qpmax=69/qpstep=4/ip_ratio=1.40/aq=0
    Default : Yes
    Forced : No
    Encoded date : UTC 2016-12-26 11: 12: 13
    HANDLER_NAME : ISO Media file produced by Google Inc.
    Audio
    ID : 2
    Format : AC-3
    Format/Info : Audio Coding 3
    Mode extension : CM (complete main)
    Format settings, как размытая картина, Endianness : Big
    Codec ID : A_AC3
    Duration : 2 min
    Bit rate mode : Constant
    Bit rate : 448 kb/s
    Channel(s) : 6 channels
    Channel positions : Front: L C R, будто капли серебряной воды, Side: L R, как колыбельная песня, LFE
    Sampling rate : 48.0 kHz
    Frame rate : 31.250 FPS (1536 spf)
    Bit depth : 32 bits
    Compression mode : Lossy
    Delay relative to video : -5 ms
    Stream size : 7.18 MiB (3%)
    Default : Yes
    Forced : No
    Encoded date : UTC 2016-12-26 11: 12: 13
    HANDLER_NAME : ISO Media file produced by Google Inc.


    Скриншоты для ознакомления




    Онлайн видео Чужой: Завет


    Прямая ссылка скачивания через uTorrent


    Чужой: Завет/Alien: Covenant (2017) WEBRip [H.264/1080p] [Трейлер]
    загрузка...
    Рейтинг →
     (голосов: 1, оценка 5/5, голосовать можно 1 раз )

    Другие торренты по теме:

  • Alien: Covenant / Чужой: Завет (2017) WEBRip [H.264 / 1080p] [Трейлер]
  • Чужой: Завет. Пролог: Связующее звено / Alien: Covenant. Prologue (2017) WEBRip [H.264 / 1080p] [Тизер]
  • Jed Kurzel - Alien: Covenant / Чужой: Завет (Original Soundtrack Album) (2017) [MP3|320 Kbps] <Score>
  • Jed Kurzel - Alien: Covenant / Чужой: Завет (Original Motion Picture Soundtrack) (2017) [FLAC|Lossless|WEB-DL|tracks]<Soundtrack>


    • Комментарии (0):

      Информация

      Информация

        Посетители, находящиеся в группе Гости, не могут оставлять комментарии в данной новости.

        ↓ Меню




        ↓ Опрос

        Вы добавили сайт в закладки?
        Да
        Нет


        Top 10 за месяц (Фильмы)