.
Авторизация | Регистрация
Хочешь лучшие торренты? Добавь свой email!
Добавить

Торрент скачать бесплатно

» » Bob Brookmeyer - Back Again (1978) 1990, Gazell[FLAC|Lossless|tracks + .cue] <Mainstream Jazz, Cool> торрент скачать бесплатно



    Bob Brookmeyer - Back Again (1978) 1990, Gazell[FLAC|Lossless|tracks + .cue] <Mainstream Jazz, Cool> торрент скачать бесплатно

    Опубликовал: Админ | Дата: 12-02-2017, 05:00 | Просмотров: 0

    Год: 1990
    Год записи: 1978
    Жанр: Mainstream Jazz, Cool
    Издание: Gazell/Sonet - GJCD 1015
    Продолжительность: 00: 42: 44
    Кодек: FLAC (tracks+.cue)
    Битрейт: Lossless
    Источник (релизер): ruskaval
    Наличие сканов в содержимом раздачи: да
    Треклист:
    01.Sweet And Lovely 08: 31
    02.Carib 04: 08
    03.Caravan 07: 38
    04.You\'d Be So Nice To Come Home To 06: 50
    05.Willow Weep For Me 03: 46
    06.I Love You 05: 59
    07.In A Rotten Mood 05: 55

    Exact Audio Copy V1.0 beta 3 from 29. August 2011
    EAC extraction logfile from 31. January 2015, 9: 08
    Bob Brookmeyer/Back Again
    Used drive : SONY DVD RW DRU-810A Adapter: 1 ID: 0
    Read mode : Secure
    Utilize accurate stream : Yes
    Defeat audio cache : Yes
    Make use of C2 pointers : No
    Read offset correction : 618
    Overread into Lead-In and Lead-Out : No
    Fill up missing offset samples with silence : Yes
    Delete leading and trailing silent blocks : No
    Null samples used in CRC calculations : Yes
    Used interface : Native Win32 interface for Win NT 2000
    Gap handling : Appended to previous track
    Used output format : User Defined Encoder
    Selected bitrate : 128 kBit/s
    Quality : High
    Add ID3 tag : No
    Command line compressor : C: Program Files (x86)Exact Audio CopyFlacflac.exe
    Additional command line options : -8 -V -T ARTIST=%artist% -T TITLE=%title% -T ALBUM=%albumtitle% -T DATE=%year% -T TRACKNUMBER=%tracknr% -T TOTALTRACKS=%numtracks% -T GENRE=%genre% -T ALBUMARTIST=%albumartist% -T ALBUM ARTIST=%albumartist% -T COMMENT=EAC Secure Mode, Test Copy, AccurateRip, FLAC -8 %source%
    TOC of the extracted CD
    Track | Start | Length | Start sector | End sector
    ---------------------------------------------------------
    1 | 0: 00.00 | 8: 30.37 | 0 | 38286
    2 | 8: 30.37 | 4: 07.15 | 38287 | 56826
    3 | 12: 37.52 | 7: 37.53 | 56827 | 91154
    4 | 20: 15.30 | 6: 49.67 | 91155 | 121896
    5 | 27: 05.22 | 3: 45.23 | 121897 | 138794
    6 | 30: 50.45 | 5: 58.30 | 138795 | 165674
    7 | 36: 49.00 | 5: 55.00 | 165675 | 192299
    Track 1
    Filename F: New RipsBob Brookmeyer - Back Again (1978) FLAC1 - Sweet And Lovely.wav
    Pre-gap length 0: 00: 02.00
    Peak level 81.2 %
    Extraction speed 5.0 X
    Track quality 100.0 %
    Test CRC C32A61FC
    Copy CRC C32A61FC
    Track not present in AccurateRip database
    Copy OK
    Track 2
    Filename F: New RipsBob Brookmeyer - Back Again (1978) FLAC2 - Carib.wav
    Pre-gap length 0: 00: 03.02
    Peak level 93.2 %
    Extraction speed 5.3 X
    Track quality 100.0 %
    Test CRC 8FA84EC6
    Copy CRC 8FA84EC6
    Track not present in AccurateRip database
    Copy OK
    Track 3
    Filename F: New RipsBob Brookmeyer - Back Again (1978) FLAC3 - Caravan.wav
    Pre-gap length 0: 00: 05.35
    Peak level 70.0 %
    Extraction speed 6.3 X
    Track quality 100.0 %
    Test CRC B0A512BD
    Copy CRC B0A512BD
    Track not present in AccurateRip database
    Copy OK
    Track 4
    Filename F: New RipsBob Brookmeyer - Back Again (1978) FLAC4 - You\'d Be So Nice To Come Home To.wav
    Pre-gap length 0: 00: 03.33
    Peak level 83.0 %
    Extraction speed 6.8 X
    Track quality 100.0 %
    Test CRC 87201050
    Copy CRC 87201050
    Track not present in AccurateRip database
    Copy OK
    Track 5
    Filename F: New RipsBob Brookmeyer - Back Again (1978) FLAC5 - Willow Weep For Me.wav
    Pre-gap length 0: 00: 03.57
    Peak level 64.2 %
    Extraction speed 6.8 X
    Track quality 100.0 %
    Test CRC FFBF82B0
    Copy CRC FFBF82B0
    Track not present in AccurateRip database
    Copy OK
    Track 6
    Filename F: New RipsBob Brookmeyer - Back Again (1978) FLAC6 - I Love You.wav
    Pre-gap length 0: 00: 04.68
    Peak level 85.6 %
    Extraction speed 7.5 X
    Track quality 100.0 %
    Test CRC A4099953
    Copy CRC A4099953
    Track not present in AccurateRip database
    Copy OK
    Track 7
    Filename F: New RipsBob Brookmeyer - Back Again (1978) FLAC7 - In A Rotten Mood.wav
    Pre-gap length 0: 00: 03.70
    Peak level 72.9 %
    Extraction speed 7.9 X
    Track quality 100.0 %
    Test CRC A1A2F431
    Copy CRC A1A2F431
    Track not present in AccurateRip database
    Copy OK
    None of the tracks are present in the AccurateRip database
    No errors occurred
    End of status report
    ---- CUETools DB Plugin V2.1.3
    CTDB TOCID: JqQNJPS2K8BvnaL.z2gCaWJH6xY- disk not present in database, Submit result: JqQNJPS2K8BvnaL.z2gCaWJH6xY- has been uploaded
    ==== Log checksum 2833DFBDD9989CA27D5B1E0C88B3DE9C373852E86BF6FBD53B736E3AFF7096D4 ====

    REM GENRE Jazz
    REM DATE 1978
    REM DISCID 500A0407
    REM COMMENT ExactAudioCopy v1.0b3
    PERFORMER Bob Brookmeyer
    TITLE Back Again
    FILE 01 - Sweet And Lovely.wav WAVE
    TRACK 01 AUDIO
    TITLE Sweet And Lovely
    PERFORMER Bob Brookmeyer
    INDEX 01 00: 00: 00
    TRACK 02 AUDIO
    TITLE Carib
    PERFORMER Bob Brookmeyer
    FLAGS DCP
    INDEX 00 08: 27: 35
    FILE 02 - Carib.wav WAVE
    INDEX 01 00: 00: 00
    TRACK 03 AUDIO
    TITLE Caravan
    PERFORMER Bob Brookmeyer
    FLAGS DCP
    INDEX 00 04: 01: 55
    FILE 03 - Caravan.wav WAVE
    INDEX 01 00: 00: 00
    TRACK 04 AUDIO
    TITLE You\'d Be So Nice To Come Home To
    PERFORMER Bob Brookmeyer
    FLAGS DCP
    INDEX 00 07: 34: 20
    FILE 04 - You\'d Be So Nice To Come Home To.wav WAVE
    INDEX 01 00: 00: 00
    TRACK 05 AUDIO
    TITLE Willow Weep For Me
    PERFORMER Bob Brookmeyer
    FLAGS DCP
    INDEX 00 06: 46: 10
    FILE 05 - Willow Weep For Me.wav WAVE
    INDEX 01 00: 00: 00
    TRACK 06 AUDIO
    TITLE I Love You
    PERFORMER Bob Brookmeyer
    FLAGS DCP
    INDEX 00 03: 40: 30
    FILE 06 - I Love You.wav WAVE
    INDEX 01 00: 00: 00
    TRACK 07 AUDIO
    TITLE In A Rotten Mood
    PERFORMER Bob Brookmeyer
    FLAGS DCP
    INDEX 00 05: 54: 35
    FILE 07 - In A Rotten Mood.wav WAVE
    INDEX 01 00: 00: 00

    -----------------------
    DON\'T MODIFY THIS FILE
    -----------------------
    PERFORMER: auCDtect Task Manager, ver. 1.6.0 RC1 build 1.6.0.1
    Copyright (c) 2008-2010 y-soft. All rights reserved
    http://y-soft.org
    ANALYZER: auCDtect: CD records authenticity detector, version 0.8.2
    Copyright (c) 2004 Oleg Berngardt. All rights reserved.
    Copyright (c) 2004 Alexander Djourik. All rights reserved.
    FILE: 07 - In A Rotten Mood.flac
    Size: 35437507 Hash: 809884B8819C101A022BBFDE5139A98F Accuracy: -m0
    Conclusion: CDDA 100%
    Signature: FC2065F7374DB1784A61C3AE89EB531F73CA60AC
    FILE: 06 - I Love You.flac
    Size: 32565788 Hash: B40417A08F08D0EA6BDA70F07F6649D0 Accuracy: -m0
    Conclusion: CDDA 100%
    Signature: C7049908B89FB6DDAAE99913505426F8FF0E9115
    FILE: 05 - Willow Weep For Me.flac
    Size: 18050735 Hash: C29E00F60018BE4158A86D3F88B8CA61 Accuracy: -m0
    Conclusion: CDDA 100%
    Signature: 4BAE2588C84EFA6836EF1D1D4FB7D4D90A4F6600
    FILE: 04 - You\'d Be So Nice To Come Home To.flac
    Size: 38618080 Hash: 43A3A1D968FCCA570AF79F24EB579B43 Accuracy: -m0
    Conclusion: CDDA 100%
    Signature: 642613B52D793D385BEF4D3B0DD394219A63551A
    FILE: 03 - Caravan.flac
    Size: 40847165 Hash: F68CA029429C5287A0E3383B6B94EC35 Accuracy: -m0
    Conclusion: CDDA 100%
    Signature: FDF05FDADE0ED18F34AA1CCC5DBA0A79065E318A
    FILE: 02 - Carib.flac
    Size: 25853969 Hash: 59E10742311EBFD29F6F8B3BD6E7D339 Accuracy: -m0
    Conclusion: CDDA 100%
    Signature: 7AB0A5E29CA3886FA265F948044AEBCBE90059E4
    FILE: 01 - Sweet And Lovely.flac
    Size: 44255643 Hash: E7746DB12DFF53E299CF037B96B1FCB2 Accuracy: -m0
    Conclusion: CDDA 100%
    Signature: BD4AF6765D5A18F6B83595EF17A9BCFE75FC33DD

    Прямая ссылка скачивания через uTorrent


    Bob Brookmeyer - Back Again (1978) 1990, Gazell[FLAC|Lossless|tracks + .cue] <Mainstream Jazz, Cool>
    загрузка...
    Рейтинг →
     (голосов: 1, оценка 5/5, голосовать можно 1 раз )

    Другие торренты по теме:

  • Stan Getz & Bob Brookmeyer Sextet - Academy Of Jazz (2000) [FLAC|Lossless]<Jazz, Mainstream Jazz, Cool> скачать через торрент бесплатно
  • The Bob Brookmeyer Quartet - Oslo (1986) 1997, Concord [FLAC|Lossless|tracks + .cue] <Post-Bop,Cool, West Coast Jaz>
  • Zoot Sims & Bob Brookmeyer - Stretching Out & Kansas City Revisited (1958) 2008, Phoenix Jazz [FLAC|Lossless|image + .cue] <Mainstream Jazz, Cool>
  • Eliane Elias, Bob Brookmeyer & The Danish Radio Jazz Orchestra - Play The Music Of Eliane Elias: Impulsive! (1997) 2000, Stunt Records [FLAC|Lossless|tracks + .cue] <Big Band, Post-Bop>


    • Комментарии (0):

      Информация

      Информация

        Посетители, находящиеся в группе Гости, не могут оставлять комментарии в данной новости.

        ↓ Меню




        ↓ Опрос

        Вы добавили сайт в закладки?
        Да
        Нет


        Top 10 за месяц (Фильмы)