.
Авторизация | Регистрация
Хочешь лучшие торренты? Добавь свой email!
Добавить

Торрент скачать бесплатно

» » Хэвенхёрст / Havenhurst (2016) HDRip [VO] торрент скачать бесплатно



    Хэвенхёрст / Havenhurst (2016) HDRip [VO] торрент скачать бесплатно

    Опубликовал: Админ | Дата: 12-02-2017, 05:00 | Просмотров: 0

    Производство: США, Protocol Entertainment, Twisted Pictures
    Жанр: Ужасы, Триллер
    Режиссер: Эндрю С. Эрин

    Актеры
    Джули Бенц, Фионнула Флэнаган, Белль Шусе, Джош Стэмберг, Даниэль Харрис, Дендри Тейлор, Тоби Хасс, Дуглас Тейт, Мэтт Ласки, Дженнифер Бланк

    Описание

    В самом центре Нью-Йорка стоит самый настоящий дом с привидениями, в который можно заселиться, но нельзя выселиться. Разве что на тот свет. Выйдя из реабилитационного центра, Джеки получает второй шанс — новую работу и комнату в многоквартирном доме Хэвенхёрст. Началом всех бед для женщины стала смерть маленькой дочери, затем последовал нервный срыв, алкоголь, наркотики… Однако, всякая боль со временем проходит, поэтому попасть в Хэвенхёрст для Джеки удача. По крайней мере, ей так казалось.

    Возраст: 18+ (зрителям, достигшим 18 лет. запрещено для детей)
    Рейтинг MPAA: NC-17 (лицам до 17 лет просмотр запрещен)
    Дата мировой премьеры: 14 мая 2016 (Cannes Film Festival)
    Релиз от: BadBajo
    Продолжительность: 01: 24: 33
    Качество видео: HDRip
    Перевод: Одноголосый закадровый
    Автор перевода: BadBajo
    Субтитры: отсутствуют
    Реклама: Отсутствует
    Видео: Xvid, 720х304, ~1863 Kbps
    Аудио: AC3, 6 ch, 384 Kbps CBR l Русский (AVO, BadBajo)
    Аудио: AC3, 6 ch, 384 Kbps CBR l Английский

    Format : AVI
    Format/Info : Audio Video Interleave
    Format profile : OpenDML
    Format settings : rec
    File size : 1.56 GiB
    Duration : 1 h 24 min
    Overall bit rate : 2 639 kb/s
    Writing application : AVI-Mux GUI 1.17.8.3, Feb 16 201019: 42: 50
    Video
    ID : 0
    Format : MPEG-4 Visual
    Format profile : Advanced Simple@L5
    Format settings, BVOP : 2
    Format settings, QPel : No
    Format settings, GMC : No warppoints
    Format settings, Matrix : Default (H.263)
    Muxing mode : Packed bitstream
    Codec ID : XVID
    Codec ID/Hint : XviD
    Duration : 1 h 24 min
    Bit rate : 1 863 kb/s
    Width : 720 pixels
    Height : 304 pixels
    Display aspect ratio : 2.35: 1
    Frame rate : 24.000 FPS
    Color space : YUV
    Chroma subsampling : 4: 2: 0
    Bit depth : 8 bits
    Scan type : Progressive
    Compression mode : Lossy
    Bits/(Pixel*Frame) : 0.355
    Stream size : 1.10 GiB (71%)
    Writing library : XviD 66
    Audio #1
    ID : 1
    Format : AC-3
    Format/Info : Audio Coding 3
    Mode extension : CM (complete main)
    Format settings, Endianness : Big
    Codec ID : 2000
    Duration : 1 h 24 min
    Bit rate mode : Constant
    Bit rate : 384 kb/s
    Channel(s) : 6 channels
    Channel positions : Front: L C R, Side: L R, LFE
    Sampling rate : 48.0 kHz
    Frame rate : 31.250 FPS (1536 spf)
    Compression mode : Lossy
    Stream size : 232 MiB (15%)
    Alignment : Aligned on interleaves
    Interleave, duration : 64 ms (1.54 video frames)
    Interleave, preload duratio : 192 ms
    Audio #2
    ID : 2
    Format : AC-3
    Format/Info : Audio Coding 3
    Mode extension : CM (complete main)
    Format settings, Endianness : Big
    Codec ID : 2000
    Duration : 1 h 24 min
    Bit rate mode : Constant
    Bit rate : 384 kb/s
    Channel(s) : 6 channels
    Channel positions : Front: L C R, Side: L R, LFE
    Sampling rate : 48.0 kHz
    Frame rate : 31.250 FPS (1536 spf)
    Compression mode : Lossy
    Stream size : 232 MiB (15%)
    Alignment : Aligned on interleaves
    Interleave, duration : 64 ms (1.54 video frames)
    Interleave, preload duratio : 192 ms


    Скриншоты для ознакомления




    Онлайн видео Хэвенхёрст


    Прямая ссылка скачивания через uTorrent


    Хэвенхёрст/Havenhurst (2016) HDRip [VO]
    загрузка...
    Рейтинг →
     (голосов: 1, оценка 4/5, голосовать можно 1 раз )

    Другие торренты по теме:

  • Хэвенхёрст / Havenhurst (2016) WEB-DLRip [Line] [AD]


    • Комментарии (0):

      Информация

      Информация

        Посетители, находящиеся в группе Гости, не могут оставлять комментарии в данной новости.

        ↓ Меню




        ↓ Опрос

        Вы добавили сайт в закладки?
        Да
        Нет


        Top 10 за месяц (Фильмы)