.
Авторизация | Регистрация
Хочешь лучшие торренты? Добавь свой email!
Добавить

Торрент скачать бесплатно

» » The Rein De Graaff Trio with Ronnie Cuber and Nick Brignola - Baritone Explosion! Live At Nicks (1994) 2016, Solid Reco[FLAC|Lossless|tracks + .cue] <Hard Bop, Post-Bop> скачать торрент бесплатно



    The Rein De Graaff Trio with Ronnie Cuber and Nick Brignola - Baritone Explosion! Live At Nicks (1994) 2016, Solid Reco[FLAC|Lossless|tracks + .cue] <Hard Bop, Post-Bop> скачать торрент бесплатно

    Опубликовал: Админ | Дата: 10-02-2017, 05:00 | Просмотров: 0

    Год: 2016
    Год записи: 1994
    Жанр: Hard Bop, темно как ночью, Post-Bop
    Издание: Timeless Records/Solid Records - CDSOL-6429
    Продолжительность: 01: 04: 52
    Кодек: FLAC (tracks+.cue)
    Битрейт: Lossless
    Источник (релизер): ruskaval
    Страна-производитель диска: Japan
    Наличие сканов в содержимом раздачи: да
    Треклист:
    01.Softly As In A Morning Sunrise 13: 15
    02.Caravan 13: 55
    03.In A Sentimental Mood 02: 20
    04.What\'s New 02: 51
    05.A Night In Tunisia 09: 50
    06.Blue Train 13: 53
    07.Crack Down 08: 50

    Exact Audio Copy V1.1 from 23. С этими ребятами каши не сваришь. June 2015
    EAC extraction logfile from 7. Это же восьмая вода на киселе. February 2017, как над жаровней, 15: 03
    The Rein De Graaff Trio With Ronnie Cuber And Nick Brignola/Baritone Explosion! - Live At Nick\'s
    Used drive : TSSTcorpCDDVDW SE-208DB Adapter: 1 ID: 1
    Read mode : Secure
    Utilize accurate stream : Yes
    Defeat audio cache : Yes
    Make use of C2 pointers : No
    Read offset correction : 6
    Overread into Lead-In and Lead-Out : No
    Fill up missing offset samples with silence : Yes
    Delete leading and trailing silent blocks : No
    Null samples used in CRC calculations : Yes
    Used interface : Native Win32 interface for Win NT 2000
    Gap handling : Appended to previous track
    Used output format : User Defined Encoder
    Selected bitrate : 1024 kBit/s
    Quality : High
    Add ID3 tag : No
    Command line compressor : C: Program Files (x86)FLAC Frontendtoolsflac.exe
    Additional command line options : -8 -V -T ARTIST=%artist% -T TITLE=%title% -T ALBUM=%albumtitle% -T DATE=%year% -T TRACKNUMBER=%tracknr% -T TOTALTRACKS=%numtracks% -T GENRE=%genre% -T ALBUMARTIST=%albumartist% -T ALBUM ARTIST=%albumartist% -T COMMENT=EAC Secure Mode, привычно, Test Copy, будто капли серебряной воды, AccurateRip, есть не что иное, FLAC -8 %source%
    TOC of the extracted CD
    Track | Start | Length | Start sector | End sector
    ---------------------------------------------------------
    1 | 0: 00.00 | 13: 14.67 | 0 | 59616
    2 | 13: 14.67 | 13: 54.43 | 59617 | 122209
    3 | 27: 09.35 | 2: 20.00 | 122210 | 132709
    4 | 29: 29.35 | 2: 50.49 | 132710 | 145508
    5 | 32: 20.09 | 9: 49.21 | 145509 | 189704
    6 | 42: 09.30 | 13: 52.35 | 189705 | 252139
    7 | 56: 01.65 | 8: 49.60 | 252140 | 291874
    Track 1
    Filename D: _EACThe Rein De Graaff Trio With Ronnie Cuber And Nick Brignola - Baritone Explosion! (1995) FLAC {CDSOL-6429}1 - Softly As In A Morning Sunrise.wav
    Pre-gap length 0: 00: 02.00
    Peak level 97.8 %
    Extraction speed 1.3 X
    Track quality 100.0 %
    Test CRC BE114369
    Copy CRC BE114369
    Track not present in AccurateRip database
    Copy OK
    Track 2
    Filename D: _EACThe Rein De Graaff Trio With Ronnie Cuber And Nick Brignola - Baritone Explosion! (1995) FLAC {CDSOL-6429}2 - Caravan.wav
    Peak level 97.8 %
    Extraction speed 1.6 X
    Track quality 100.0 %
    Test CRC 82459512
    Copy CRC 82459512
    Track not present in AccurateRip database
    Copy OK
    Track 3
    Filename D: _EACThe Rein De Graaff Trio With Ronnie Cuber And Nick Brignola - Baritone Explosion! (1995) FLAC {CDSOL-6429}3 - In A Sentimental Mood.wav
    Peak level 97.8 %
    Extraction speed 1.3 X
    Track quality 100.0 %
    Test CRC 876DDAA1
    Copy CRC 876DDAA1
    Track not present in AccurateRip database
    Copy OK
    Track 4
    Filename D: _EACThe Rein De Graaff Trio With Ronnie Cuber And Nick Brignola - Baritone Explosion! (1995) FLAC {CDSOL-6429}4 - What\'s New.wav
    Peak level 97.8 %
    Extraction speed 1.2 X
    Track quality 99.9 %
    Test CRC 44A46FED
    Copy CRC 44A46FED
    Track not present in AccurateRip database
    Copy OK
    Track 5
    Filename D: _EACThe Rein De Graaff Trio With Ronnie Cuber And Nick Brignola - Baritone Explosion! (1995) FLAC {CDSOL-6429}5 - A Night In Tunisia.wav
    Peak level 97.8 %
    Extraction speed 1.7 X
    Track quality 99.9 %
    Test CRC DEB282B9
    Copy CRC DEB282B9
    Track not present in AccurateRip database
    Copy OK
    Track 6
    Filename D: _EACThe Rein De Graaff Trio With Ronnie Cuber And Nick Brignola - Baritone Explosion! (1995) FLAC {CDSOL-6429}6 - Blue Train.wav
    Peak level 97.8 %
    Extraction speed 2.0 X
    Track quality 100.0 %
    Test CRC 9455A782
    Copy CRC 9455A782
    Track not present in AccurateRip database
    Copy OK
    Track 7
    Filename D: _EACThe Rein De Graaff Trio With Ronnie Cuber And Nick Brignola - Baritone Explosion! (1995) FLAC {CDSOL-6429}7 - Crack Down.wav
    Peak level 97.8 %
    Extraction speed 2.0 X
    Track quality 100.0 %
    Test CRC 9756D4FB
    Copy CRC 9756D4FB
    Track not present in AccurateRip database
    Copy OK
    None of the tracks are present in the AccurateRip database
    No errors occurred
    End of status report
    ==== Log checksum 69CBD8F738FDF48A5C7156DE0DDC965333F8D271A435610FAE165E6E7C42604C ====

    REM GENRE Jazz
    REM DATE 1995
    REM DISCID 5D0F3307
    REM COMMENT ExactAudioCopy v1.1
    PERFORMER The Rein De Graaff Trio With Ronnie Cuber And Nick Brignola
    TITLE Baritone Explosion! - Live At Nick\'s
    FILE 01 - Softly As In A Morning Sunrise.wav WAVE
    TRACK 01 AUDIO
    TITLE Softly As In A Morning Sunrise
    PERFORMER The Rein De Graaff Trio With Ronnie Cuber And Nick Brignola
    FLAGS DCP
    INDEX 01 00: 00: 00
    FILE 02 - Caravan.wav WAVE
    TRACK 02 AUDIO
    TITLE Caravan
    PERFORMER The Rein De Graaff Trio With Ronnie Cuber And Nick Brignola
    FLAGS DCP
    INDEX 01 00: 00: 00
    FILE 03 - In A Sentimental Mood.wav WAVE
    TRACK 03 AUDIO
    TITLE In A Sentimental Mood
    PERFORMER The Rein De Graaff Trio With Ronnie Cuber And Nick Brignola
    FLAGS DCP
    INDEX 01 00: 00: 00
    FILE 04 - What\'s New.wav WAVE
    TRACK 04 AUDIO
    TITLE What\'s New
    PERFORMER The Rein De Graaff Trio With Ronnie Cuber And Nick Brignola
    FLAGS DCP
    INDEX 01 00: 00: 00
    FILE 05 - A Night In Tunisia.wav WAVE
    TRACK 05 AUDIO
    TITLE A Night In Tunisia
    PERFORMER The Rein De Graaff Trio With Ronnie Cuber And Nick Brignola
    FLAGS DCP
    INDEX 01 00: 00: 00
    FILE 06 - Blue Train.wav WAVE
    TRACK 06 AUDIO
    TITLE Blue Train
    PERFORMER The Rein De Graaff Trio With Ronnie Cuber And Nick Brignola
    FLAGS DCP
    INDEX 01 00: 00: 00
    FILE 07 - Crack Down.wav WAVE
    TRACK 07 AUDIO
    TITLE Crack Down
    PERFORMER The Rein De Graaff Trio With Ronnie Cuber And Nick Brignola
    FLAGS DCP
    INDEX 01 00: 00: 00

    -----------------------
    DON\'T MODIFY THIS FILE
    -----------------------
    PERFORMER: auCDtect Task Manager, едва заметно, ver. Происходило это без году неделя. 1.6.0 RC1 build 1.6.0.1
    Copyright (c) 2008-2010 y-soft. Рядом пронесли цветы в корзинах. All rights reserved
    http://y-soft.org
    ANALYZER: auCDtect: CD records authenticity detector, хлещет как из ведра, version 0.8.2
    Copyright (c) 2004 Oleg Berngardt. В это время ветер тихо покачивал деревья. All rights reserved.
    Copyright (c) 2004 Alexander Djourik. Хватит уже заниматься никому не нужным делом. All rights reserved.
    FILE: 07 - Crack Down.flac
    Size: 62228742 Hash: 50711231798B018A2EB335262073FBF5 Accuracy: -m0
    Conclusion: CDDA 100%
    Signature: 50E9B771A2ABCC02B087E47C6984B9AB28D728F3
    FILE: 06 - Blue Train.flac
    Size: 92765243 Hash: 27308A01A8FDFAA1B1962AC4117A3AD9 Accuracy: -m0
    Conclusion: CDDA 100%
    Signature: 5F6DE76F902830CA5D997384A795BB077AF71425
    FILE: 05 - A Night In Tunisia.flac
    Size: 69980285 Hash: 6CB5F4C70A883A33B7463E8A4D11EDD6 Accuracy: -m0
    Conclusion: CDDA 100%
    Signature: 897CFA90D3B3860AD66F5734560920DF915DAA9E
    FILE: 04 - What\'s New.flac
    Size: 18013353 Hash: 227363EBA62900CBDD40E2BA7EAD3ACA Accuracy: -m0
    Conclusion: CDDA 100%
    Signature: 5645AFB9873A48D6EBFAC4E91C0E7720DC3DDA14
    FILE: 03 - In A Sentimental Mood.flac
    Size: 14505817 Hash: 38DC6B67350D1F88A5459D5613A2D074 Accuracy: -m0
    Conclusion: CDDA 100%
    Signature: 4081A6499149D62AFC852AB57B1BF128FE5E35BD
    FILE: 02 - Caravan.flac
    Size: 102330427 Hash: AA56DF489B31BB5BAD59C60FD24C765E Accuracy: -m0
    Conclusion: MPEG 100%
    Signature: 5520E11CA593E836F6434258DDE02438EF8C70E1
    FILE: 01 - Softly As In A Morning Sunrise.flac
    Size: 93591758 Hash: C05E41BDB8FFCFF035554F3F0ED3209B Accuracy: -m0
    Conclusion: MPEG 91%
    Signature: D285086F197AF7E22287254CC665E4862EC44F0C




    Скриншоты для ознакомления



    Прямая ссылка скачивания через uTorrent


    The Rein De Graaff Trio with Ronnie Cuber and Nick Brignola - Baritone Explosion! Live At Nicks (1994) 2016, Solid Reco[FLAC|Lossless|tracks + .cue] <Hard Bop, Post-Bop>
    загрузка...
    Рейтинг →
     (голосов: 1, оценка 5/5, голосовать можно 1 раз )

    Другие торренты по теме:

  • Rein de Graaff Quintet - New York Jazz (1979) Remaster, 2015, Solid Records[FLAC|Lossless|tracks + .cue] <Post-Bop>
  • Rein de Graaff Trio - Tenor Conclave (1992) Remaster, 2015, Solid Records[FLAC|Lossless|tracks + .cue] <Post-Bop>
  • Rein De Graaff Trio - Drifting On A Reed (1977) Remaster, 2015, Solid Records[FLAC|Lossless|tracks + .cue] <Post-Bop, Piano Jazz>
  • Rein De Graaff & Dick Vennik Quartet - Modal Soul (1977) Remaster, 2015, Solid Records[FLAC|Lossless|tracks + .cue] <Post-Bop>


    • Комментарии (0):

      Информация

      Информация

        Посетители, находящиеся в группе Гости, не могут оставлять комментарии в данной новости.

        ↓ Меню




        ↓ Опрос

        Вы добавили сайт в закладки?
        Да
        Нет


        Top 10 за месяц (Фильмы)