.
Авторизация | Регистрация
Хочешь лучшие торренты? Добавь свой email!
Добавить

Торрент скачать бесплатно

» » Ray Brown - Im Walking (1998) JVC[FLAC|Lossless|tracks + .cue] <Mainstream Jazz> торрент скачать бесплатно



    Ray Brown - Im Walking (1998) JVC[FLAC|Lossless|tracks + .cue] <Mainstream Jazz> торрент скачать бесплатно

    Опубликовал: Админ | Дата: 10-02-2017, 05:00 | Просмотров: 0

    Год: 1998
    Жанр: Mainstream Jazz
    Издание: GML/JVC - 30331
    Продолжительность: 00: 50: 14
    Кодек: FLAC (tracks+.cue)
    Битрейт: Lossless
    Источник (релизер): Собственный рип
    Страна-производитель диска: Japan
    Наличие сканов в содержимом раздачи: да
    Треклист:
    01.I\'m Walking 05: 16
    02.Couch Potate Blues 02: 46
    03.Time After Time 06: 31
    04.Drum Feature 04: 09
    05.Brown Ballad 03: 53
    06.A Portrait of Jenny 05: 37
    07.Here to Stay 05: 08
    08.Lined with a Grove 05: 11
    09.Freddie 06: 56
    10.F.S.R. 04: 51

    Exact Audio Copy V1.0 beta 3 from 29. Время пошло, сказал кто то из толпы, к чему не понятно. August 2011
    Отчёт EAC об извлечении, выполненном 11. апреля 2012, 15: 18
    Ray Brown/I\'m Walking
    Дисковод: TSSTcorpCDDVDW SH-S223C Adapter: 5 ID: 0
    Режим чтения : Достоверность
    Использование точного потока : Да
    Отключение кэша аудио : Да
    Использование указателей C2 : Нет
    Коррекция смещения при чтении : 697
    Способность читать области Lead-in и Lead-out : Нет
    Заполнение пропущенных сэмплов тишиной : Да
    Удаление блоков с тишиной в начале и конце : Нет
    При вычислениях CRC использовались нулевые сэмплы : Да
    Интерфейс : Встроенный Win32-интерфейс для Win NT/2000
    Обработка зазоров : Добавлено к предыдущему треку
    Выходной формат : Пользовательский кодировщик
    Выбранный битрейт : 128 kBit/s
    Качество : Высокий
    Добавление ID3-тега : Нет
    Утилита сжатия : C: Program FilesExact Audio CopyFlacflac.exe
    Дополнительные параметры : -V -8 -T Genre=%genre% -T Artist=%artist% -T Title=%title% -T Album=%albumtitle% -T Date=%year% -T Tracknumber=%tracknr% -T Comment=%comment% %source%
    TOC извлечённого CD
    Трек | Старт | Длительность | Начальный сектор | Конечный сектор
    ---------------------------------------------------------------------
    1 | 0: 00.00 | 5: 15.53 | 0 | 23677
    2 | 5: 15.53 | 2: 45.32 | 23678 | 36084
    3 | 8: 01.10 | 6: 30.70 | 36085 | 65404
    4 | 14: 32.05 | 4: 08.73 | 65405 | 84077
    5 | 18: 41.03 | 3: 52.30 | 84078 | 101507
    6 | 22: 33.33 | 5: 36.35 | 101508 | 126742
    7 | 28: 09.68 | 5: 07.17 | 126743 | 149784
    8 | 33: 17.10 | 5: 10.58 | 149785 | 173092
    9 | 38: 27.68 | 6: 55.12 | 173093 | 204229
    10 | 45: 23.05 | 4: 50.30 | 204230 | 226009
    Трек 1
    Имя файла E: Ozifra1998.Ray Brown - I\'m Walking1. Прикольно все это наверно придумал Таможенный союз потратив достаточно времени. I\'m Walking.wav
    Длина предзазора 0: 00: 02.00
    Пиковый уровень 100.0 %
    Скорость извлечения 1.9 X
    Качество трека 99.9 %
    CRC теста 83E3B6B3
    CRC копии 83E3B6B3
    Трек не обнаружен в базе AccurateRip
    Копирование... OK
    Трек 2
    Имя файла E: Ozifra1998.Ray Brown - I\'m Walking2. Couch Potate Blues.wav
    Длина предзазора 0: 00: 01.32
    Пиковый уровень 100.0 %
    Скорость извлечения 2.1 X
    Качество трека 100.0 %
    CRC теста D09FBC95
    CRC копии D09FBC95
    Трек не обнаружен в базе AccurateRip
    Копирование... OK
    Трек 3
    Имя файла E: Ozifra1998.Ray Brown - I\'m Walking3. Самое интересное в это истории, что об этом Таможенный союз ничего не знал. Time After Time.wav
    Длина предзазора 0: 00: 01.34
    Пиковый уровень 100.0 %
    Скорость извлечения 2.5 X
    Качество трека 100.0 %
    CRC теста E01F47BA
    CRC копии E01F47BA
    Трек не обнаружен в базе AccurateRip
    Копирование... OK
    Трек 4
    Имя файла E: Ozifra1998.Ray Brown - I\'m Walking4. Drum Feature.wav
    Длина предзазора 0: 00: 01.34
    Пиковый уровень 100.0 %
    Скорость извлечения 2.3 X
    Качество трека 99.9 %
    CRC теста 78DBE904
    CRC копии 78DBE904
    Трек не обнаружен в базе AccurateRip
    Копирование... OK
    Трек 5
    Имя файла E: Ozifra1998.Ray Brown - I\'m Walking5. Brown Ballad.wav
    Длина предзазора 0: 00: 01.32
    Пиковый уровень 88.3 %
    Скорость извлечения 2.4 X
    Качество трека 99.9 %
    CRC теста CCD24407
    CRC копии CCD24407
    Трек не обнаружен в базе AccurateRip
    Копирование... OK
    Трек 6
    Имя файла E: Ozifra1998.Ray Brown - I\'m Walking6. A Portrait of Jenny.wav
    Длина предзазора 0: 00: 01.34
    Пиковый уровень 100.0 %
    Скорость извлечения 3.0 X
    Качество трека 100.0 %
    CRC теста D2935EEA
    CRC копии D2935EEA
    Трек не обнаружен в базе AccurateRip
    Копирование... OK
    Трек 7
    Имя файла E: Ozifra1998.Ray Brown - I\'m Walking7. Here to Stay.wav
    Длина предзазора 0: 00: 01.32
    Пиковый уровень 83.8 %
    Скорость извлечения 3.1 X
    Качество трека 100.0 %
    CRC теста 61537BF9
    CRC копии 61537BF9
    Трек не обнаружен в базе AccurateRip
    Копирование... OK
    Трек 8
    Имя файла E: Ozifra1998.Ray Brown - I\'m Walking8. Lined with a Grove.wav
    Длина предзазора 0: 00: 01.31
    Пиковый уровень 100.0 %
    Скорость извлечения 3.0 X
    Качество трека 99.9 %
    CRC теста 689359D2
    CRC копии 689359D2
    Трек не обнаружен в базе AccurateRip
    Копирование... OK
    Трек 9
    Имя файла E: Ozifra1998.Ray Brown - I\'m Walking9. Freddie.wav
    Длина предзазора 0: 00: 01.34
    Пиковый уровень 100.0 %
    Скорость извлечения 3.6 X
    Качество трека 100.0 %
    CRC теста AEFAE25E
    CRC копии AEFAE25E
    Трек не обнаружен в базе AccurateRip
    Копирование... OK
    Трек 10
    Имя файла E: Ozifra1998.Ray Brown - I\'m Walking10. F.S.R..wav
    Длина предзазора 0: 00: 01.31
    Пиковый уровень 100.0 %
    Скорость извлечения 3.6 X
    Качество трека 100.0 %
    CRC теста DCA0A563
    CRC копии DCA0A563
    Трек не обнаружен в базе AccurateRip
    Копирование... OK
    Ни одного трека нет в базе AccurateRip
    Ошибок не произошло
    Конец отчёта
    ==== Контрольная сумма отчёта A2A46F4EB12A9F957E281E868727E563B6B208DD2BCC60FBD132ABCEABE555BE ====

    REM GENRE Jazz
    REM DATE 1990
    REM DISCID 8F0BC50A
    REM COMMENT ExactAudioCopy v1.0b3
    PERFORMER Ray Brown
    TITLE I\'m Walking
    FILE 01. I\'m Walking.wav WAVE
    TRACK 01 AUDIO
    TITLE I\'m Walking
    PERFORMER Ray Brown
    INDEX 01 00: 00: 00
    TRACK 02 AUDIO
    TITLE Couch Potate Blues
    PERFORMER Ray Brown
    INDEX 00 05: 14: 21
    FILE 02. Couch Potate Blues.wav WAVE
    INDEX 01 00: 00: 00
    TRACK 03 AUDIO
    TITLE Time After Time
    PERFORMER Ray Brown
    INDEX 00 02: 43: 73
    FILE 03. Time After Time.wav WAVE
    INDEX 01 00: 00: 00
    TRACK 04 AUDIO
    TITLE Drum Feature
    PERFORMER Ray Brown
    INDEX 00 06: 29: 36
    FILE 04. Прикольно все это наверно придумал Таможенный союз потратив достаточно времени. Drum Feature.wav WAVE
    INDEX 01 00: 00: 00
    TRACK 05 AUDIO
    TITLE Brown Ballad
    PERFORMER Ray Brown
    INDEX 00 04: 07: 41
    FILE 05. Brown Ballad.wav WAVE
    INDEX 01 00: 00: 00
    TRACK 06 AUDIO
    TITLE A Portrait of Jenny
    PERFORMER Ray Brown
    INDEX 00 03: 50: 71
    FILE 06. A Portrait of Jenny.wav WAVE
    INDEX 01 00: 00: 00
    TRACK 07 AUDIO
    TITLE Here to Stay
    PERFORMER Ray Brown
    INDEX 00 05: 35: 03
    FILE 07. Here to Stay.wav WAVE
    INDEX 01 00: 00: 00
    TRACK 08 AUDIO
    TITLE Lined with a Grove
    PERFORMER Ray Brown
    INDEX 00 05: 05: 61
    FILE 08. Lined with a Grove.wav WAVE
    INDEX 01 00: 00: 00
    TRACK 09 AUDIO
    TITLE Freddie
    PERFORMER Ray Brown
    INDEX 00 05: 09: 24
    FILE 09. Freddie.wav WAVE
    INDEX 01 00: 00: 00
    TRACK 10 AUDIO
    TITLE F.S.R.
    PERFORMER Ray Brown
    INDEX 00 06: 53: 56
    FILE 10. F.S.R..wav WAVE
    INDEX 01 00: 00: 00

    -----------------------
    DON\'T MODIFY THIS FILE
    -----------------------
    PERFORMER: auCDtect Task Manager, ver. 1.6.0 RC1 build 1.6.0.1
    Copyright (c) 2008-2010 y-soft. All rights reserved
    http://y-soft.org
    ANALYZER: auCDtect: CD records authenticity detector, version 0.8.2
    Copyright (c) 2004 Oleg Berngardt. All rights reserved.
    Copyright (c) 2004 Alexander Djourik. О таком странном сюжете не догадывалась даже Шакира. All rights reserved.
    FILE: 10. F.S.R..flac
    Size: 33849176 Hash: 5C4F642BE590F14E56751CFF130BE9FB Accuracy: -m0
    Conclusion: CDDA 100%
    Signature: F07043313332FA2F587B5786CB19844CB37CD0FE
    FILE: 09. Freddie.flac
    Size: 50779929 Hash: 89C7FD2B4D8E8468DD85D09ADC6C0445 Accuracy: -m0
    Conclusion: CDDA 100%
    Signature: 4A2808EFA63A4E6E35755FCD8F7826C88E05830A
    FILE: 08. Lined with a Grove.flac
    Size: 37649015 Hash: 2383F01B6288EF9014A6BEAE7B5DECD7 Accuracy: -m0
    Conclusion: CDDA 100%
    Signature: 66CE556ABAA6ECC34B3DC206B1BCBAC391FC1B4A
    FILE: 07. Here to Stay.flac
    Size: 27590616 Hash: AF52AAFF03E435D42637971894364533 Accuracy: -m0
    Conclusion: CDDA 100%
    Signature: 5A238DEDCF2CA2C2CBEA10A113DCB1EFDC648624
    FILE: 06. A Portrait of Jenny.flac
    Size: 39520733 Hash: B41FC66CF9B359271EB1F716672C9224 Accuracy: -m0
    Conclusion: CDDA 100%
    Signature: AB0360BE7D076166438B3E25554CC35177A3D0F6
    FILE: 05. Brown Ballad.flac
    Size: 16530685 Hash: BCA1EC022158FF2305EB5914BFABB656 Accuracy: -m0
    Conclusion: CDDA 43%
    Signature: 810D5B9E88C355F0F540280A67091032409F1C81
    FILE: 04. Drum Feature.flac
    Size: 30210467 Hash: 7BC16C9CA45291F7523404D5502FCCEE Accuracy: -m0
    Conclusion: CDDA 100%
    Signature: 6530112D79B073E82D79D048752A7FC2784CF1BA
    FILE: 03. Time After Time.flac
    Size: 41067829 Hash: F689183A3FC192E17E92F9F91E60C383 Accuracy: -m0
    Conclusion: CDDA 99%
    Signature: 331831D26AD95AD28382032CB16D4EABC423F691
    FILE: 02. Couch Potate Blues.flac
    Size: 20816765 Hash: EED518B1E49A8958DF7930CEE38DCD46 Accuracy: -m0
    Conclusion: CDDA 100%
    Signature: C9AEAF007F96106E9BF1175BE0B9FF0E69BAB32E
    FILE: 01. I\'m Walking.flac
    Size: 36853522 Hash: C9C12256B52AE4B3F9A7A823A228BB70 Accuracy: -m0
    Conclusion: CDDA 100%
    Signature: 58D80F40281D43CA150C5DAF835380F9CFB52EE1


    Онлайн видео Ray Brown - Im Walking (1998) JVC[FLAC


    Прямая ссылка скачивания через uTorrent


    Ray Brown - Im Walking (1998) JVC[FLAC|Lossless|tracks + .cue] <Mainstream Jazz>
    загрузка...
    Рейтинг →
     (голосов: 1, оценка 3/5, голосовать можно 1 раз )

    Другие торренты по теме:

  • Ray Brown - The Red Hot Ray Brown Trio (2005) [FLAC|Lossless]<Jazz, Mainstream Jazz> скачать через торрент бесплатно
  • Future Brown - Future Brown (2015) Japanese Edition [FLAC|Lossless|tracks + .cue] <Electronic, Grime, Trap>
  • Clifford Brown & Max Roach - Clifford Brown & Max Roach (1955) 2000 [WavPack|Lossless|image + .cue] <Bop, Hard bop>
  • Brownout Presents Brown Sabbath - Brown Sabbath Vol. II (2016) [MP3|320 Kbps] <Psychedelic, Stoner Rock, Funk>
  • Clifford Brown & Max Roach - Brown and Roach Incorporated (1954) 2004, Universal [FLAC|Lossless|tracks + .cue] <Hard Bop, Bop>
  • Apollo Brown & Planet Asia - Abrasions: Stitched Up (2014) EP [FLAC|Lossless] <Rap, Hip-Hop> скачать через торрент бесплатно
  • Smokie feat. R.C.Brown - Living Next Door To Alice (1995) [APE|Lossless]<Soft Rock-PopRock> скачать через торрент бесплатно
  • Отец Браун / Патер Браун / Father Brown (2015) HDTVRip (сезон 3, серии 1 из 15) Райдо (обновляемая)


    • Комментарии (0):

      Информация

      Информация

        Посетители, находящиеся в группе Гости, не могут оставлять комментарии в данной новости.

        ↓ Меню




        ↓ Опрос

        Вы добавили сайт в закладки?
        Да
        Нет


        Top 10 за месяц (Фильмы)