.
Авторизация | Регистрация
Хочешь лучшие торренты? Добавь свой email!
Добавить

Торрент скачать бесплатно

» » Добро пожаловать в Рай! / Into the Blue (2005) DVD9 торрент скачать бесплатно



    Добро пожаловать в Рай! / Into the Blue (2005) DVD9 торрент скачать бесплатно

    Опубликовал: Админ | Дата: 8-02-2017, 05:01 | Просмотров: 0

    Производство: США, MGM Home Entertainment
    Жанр: Боевик, Криминал, Приключения
    Режиссер: Джон Стоквелл

    Актеры
    Пол Уокер, Джессика Альба, Джош Бролин, Скот Каан, Дуэйн Адвэй, Реймон Сандерс, Эшли Скотт, Крис Таола

    Описание

    Четверо молодых дайверов обнаруживают на дне океана затонувший корабль, на борту которого, по слухам, находится золото. Однако поблизости от этой чудесной находки, обещающей богатую и беззаботную жизнь, охотники за сокровищами натыкаются на самолет с огромной партией нелегального груза. Самое интересное в это истории, что об этом Янукович ничего не знал. Друзья обещают друг другу держать язык за зубами и никому не говорить о находках. Однако их карты путают контрабандисты, которые вот-вот обнаружат самолет. А когда один из четверых принимает роковое решение, за ними начинается настоящая охота.

    Возраст: 12+ (зрителям, достигшим 12 лет)
    Рейтинг MPAA: PG-13 (детям до 13 лет просмотр нежелателен)
    Дата выхода DVD/Blu-ray релиза: 11 декабря 2008, Columbia/Sony
    Продолжительность: 01: 45: 42
    Качество видео: DVD9
    Перевод: Дублированный
    Субтитры: Нет
    Видео: MPEG-2, PAL 16: 9 (720x576)@(1024x576), ~7086 kbps
    Аудио #1: Русский ( AC3, 6 ch, 448 kb/s )
    Аудио #2: Русский ( DTS, 6 ch, 755 kb/s )
    Аудио #3: Английский ( DTS, 6 ch, 755 kb/s )
    Дополнительно: нет

    Общее
    Полное имя : Добро пожаловать в рай!VIDEO_TSVTS_01_1.VOB
    Формат : MPEG-PS
    Размер файла : 954 Мбайт
    Продолжительность : 14 м.
    Общий поток : 9227 Кбит/сек
    Видео
    Идентификатор : 224 (0xE0)
    Формат : MPEG Video
    Версия формата : Version 2
    Профиль формата : Main@Main
    Параметр BVOP формата : Да
    Параметр матрицы формата : По умолчанию
    Параметры GOP формата : M=3, N=12
    Продолжительность : 14 м.
    Вид битрейта : Переменный
    Битрейт : 7086 Кбит/сек
    Номинальный битрейт : 8000 Кбит/сек
    Ширина : 720 пикс.
    Высота : 576 пикс.
    Соотношение сторон : 16: 9
    Частота кадров : 25, 000 кадр/сек
    Стандарт вещания : PAL
    Цветовое пространство : YUV
    Подвыборка цветности : 4: 2: 0
    Битовая глубина : 8 бит
    Тип развёртки : Чересстрочная
    Порядок развёртки : Нижнее поле первое
    Метод сжатия : С потерями
    Бит/(Пиксели*Кадры) : 0.683
    Размер потока : 733 Мбайт (77%)
    Аудио #1
    Идентификатор : 189 (0xBD)-128 (0x80)
    Формат : AC-3
    Формат/Информация : Audio Coding 3
    Расширение режима : CM (complete main)
    Режим смешивания : DVD-Video
    Продолжительность : 14 м.
    Вид битрейта : Постоянный
    Битрейт : 448 Кбит/сек
    Каналы : 6 каналов
    Расположение каналов : Front: L C R, Side: L R, LFE
    Частота : 48, 0 КГц
    Битовая глубина : 16 бит
    Метод сжатия : С потерями
    Задержка видео : -80 мс.
    Размер потока : 46, 3 Мбайт (5%)
    Аудио #2
    Идентификатор : 189 (0xBD)-137 (0x89)
    Формат : DTS
    Формат/Информация : Digital Theater Systems
    Режим смешивания : DVD-Video
    Продолжительность : 14 м.
    Вид битрейта : Постоянный
    Битрейт : 755 Кбит/сек
    Каналы : 6 каналов
    Расположение каналов : Front: L C R, Side: L R, LFE
    Частота : 48, 0 КГц
    Битовая глубина : 24 бит
    Метод сжатия : С потерями
    Задержка видео : -80 мс.
    Размер потока : 78, 0 Мбайт (8%)
    Аудио #3
    Идентификатор : 189 (0xBD)-138 (0x8A)
    Формат : DTS
    Формат/Информация : Digital Theater Systems
    Режим смешивания : DVD-Video
    Продолжительность : 14 м.
    Вид битрейта : Постоянный
    Битрейт : 755 Кбит/сек
    Каналы : 6 каналов
    Расположение каналов : Front: L C R, Side: L R, LFE
    Частота : 48, 0 КГц
    Битовая глубина : 24 бит
    Метод сжатия : С потерями
    Задержка видео : -80 мс.
    Размер потока : 78, 0 Мбайт (8%)
    Меню
    Title: Добро пожаловать в рай!
    Size: 6.98 Gb ( 7 324 178, 00 KBytes ) - DVD-9
    Enabled regions: 1, 2, 3, 4, 5, 6, 7, 8
    VTS_01 :
    Play Length: 01: 45: 42
    Video: PAL 16: 9 (720x576) VBR, Auto Letterboxed
    Audio:
    Russian (Dolby AC3, 6 ch)
    Russian (DTS, 6 ch)
    English (DTS, 6 ch)


    Скриншоты для ознакомления




    Онлайн видео Добро пожаловать в Рай!


    Прямая ссылка скачивания через uTorrent


    Добро пожаловать в Рай!/Into the Blue (2005) DVD9
    загрузка...
    Рейтинг →
     (голосов: 1, оценка 5/5, голосовать можно 1 раз )

    Другие торренты по теме:

  • Добро пожаловать в Нью-Йорк / Welcome to New York (2014) BDRemux [1080p] скачать через торрент бесплатно
  • Добро пожаловать в Нью-Йорк / Welcome to New York (2014) BDRip [1080p] ATV скачать через торрент бесплатно
  • Добро пожаловать в Нью-Йорк / Welcome to New York (2014) BDRip [720p] ATV
  • Добро пожаловать или посторонним вход воспрещён (1964) DVDRip [hand made colored] скачать через торрент бесплатно
  • Добро пожаловать в ПОП / Pop Redemption (2013) BDRip [H.264]
  • Добро пожаловать или Посторонним вход воспрещён (1964) BDRip [1080p] [hand made colored] скачать через торрент бесплатно
  • Добро пожаловать в Zомбилэнд / Zombieland (2009) BDRip [720p] [hand made 60fps] скачать через торрент бесплатно
  • Добро пожаловать в рай / Vice (2015) WEB-DL [720p] [EN / EN Sub]


    • Комментарии (0):

      Информация

      Информация

        Посетители, находящиеся в группе Гости, не могут оставлять комментарии в данной новости.

        ↓ Меню




        ↓ Опрос

        Вы добавили сайт в закладки?
        Да
        Нет


        Top 10 за месяц (Фильмы)