.
Авторизация | Регистрация
Хочешь лучшие торренты? Добавь свой email!
Добавить

Торрент скачать бесплатно

» » Необходимость / All I Need (2016) WEB-DL [H.264] [VO] торрент скачать бесплатно



    Необходимость / All I Need (2016) WEB-DL [H.264] [VO] торрент скачать бесплатно

    Опубликовал: Админ | Дата: 8-02-2017, 05:01 | Просмотров: 0

    Производство: США, Foggy Bottom Pictures, Girls and Corpses
    Жанр: Ужасы, Триллер
    Режиссер: Дилан К. Наранг

    Актеры
    Кэйтлин Стэйси, Рэйчел Мелвин, Джонатан Айли, Мелани Авалон, Леа МакКендрик, Сорел Кэрредин, Маркус Тейлор, Эрин Стэк

    Описание

    Молодая девушка просыпается связанной в неизвестном месте и в окружении других связанных девушек. Периодически заходит убийца, чтобы выпотрошить еще одну жертву. Ждать спасения или выбираться самой? Ответ очевиден.

    Возраст: 18+ (зрителям, достигшим 18 лет. запрещено для детей)
    Рейтинг MPAA: NC-17 (лицам до 17 лет просмотр запрещен)
    Релиз от: BadBajo
    Продолжительность: 01: 23: 06
    Качество видео: WEB-DL
    Перевод: Одноголосый закадровый
    Автор перевода: BadBajo
    Реклама: Отсутствует
    Видео: AVC/H.264, 720x368, ~1100 Kbps
    Аудио: MP3, 2 ch, 320 Kbps l Русский (AVO, BadBajo)

    Format : Matroska
    Format version : Version 4/Version 2
    File size : 829 MiB
    Duration : 1 h 23 min
    Overall bit rate : 1 394 kb/s
    Encoded date : UTC 2017-02-07 18: 11: 39
    Writing application : mkvmerge v9.5.0 (\'Quiet Fire\') 64bit
    Writing library : libebml v1.3.4 + libmatroska v1.4.5
    Cover : Yes
    Attachments : cover.jpg
    Video
    ID : 1
    Format : AVC
    Format/Info : Advanced Video Codec
    Format profile : High@L3.1
    Format settings, CABAC : Yes
    Format settings, ReFrames : 5 frames
    Codec ID : V_MPEG4/ISO/AVC
    Duration : 1 h 23 min
    Bit rate : 1 100 kb/s
    Width : 720 pixels
    Height : 368 pixels
    Display aspect ratio : 1.921
    Original display aspect rat : 1.920
    Frame rate mode : Constant
    Frame rate : 23.976 (23976/1000) FPS
    Color space : YUV
    Chroma subsampling : 4: 2: 0
    Bit depth : 8 bits
    Scan type : Progressive
    Bits/(Pixel*Frame) : 0.173
    Stream size : 638 MiB (77%)
    Writing library : x264 core 148 r2597M e86f3a1
    Encoding settings : cabac=1/ref=5/deblock=1: -2: -2/analyse=0x3: 0x113/me=umh/subme=8/psy=1/psy_rd=0.90: 0.00/mixed_ref=1/me_range=16/chroma_me=1/trellis=1/8x8dct=1/cqm=0/deadzone=21, 11/fast_pskip=1/chroma_qp_offset=-2/threads=40/lookahead_threads=5/sliced_threads=0/nr=0/decimate=1/interlaced=0/bluray_compat=0/constrained_intra=0/bframes=3/b_pyramid=2/b_adapt=2/b_bias=0/direct=3/weightb=1/open_gop=0/weightp=2/keyint=250/keyint_min=25/scenecut=40/intra_refresh=0/rc_lookahead=50/rc=abr/mbtree=1/bitrate=1100/ratetol=1.0/qcomp=0.60/qpmin=0/qpmax=69/qpstep=4/vbv_maxrate=31250/vbv_bufsize=31250/nal_hrd=none/filler=0/ip_ratio=1.40/aq=1: 1.00
    Language : English
    Default : Yes
    Forced : No
    Audio
    ID : 2
    Format : MPEG Audio
    Format version : Version 1
    Format profile : Layer 3
    Mode : Joint stereo
    Mode extension : MS Stereo
    Codec ID : A_MPEG/L3
    Codec ID/Hint : MP3
    Duration : 1 h 23 min
    Bit rate mode : Constant
    Bit rate : 320 kb/s
    Channel(s) : 2 channels
    Sampling rate : 48.0 kHz
    Frame rate : 41.667 FPS (1152 spf)
    Compression mode : Lossy
    Stream size : 190 MiB (23%)
    Title : All.I.Need.2016_rus_BadBajo
    Writing library : LAME3.99.5ЄЄЄЄЄЄЄЄЄЄ
    Language : Russian
    Default : Yes
    Forced : Yes


    Скриншоты для ознакомления




    Онлайн видео Необходимость


    Прямая ссылка скачивания через uTorrent


    Необходимость/All I Need (2016) WEB-DL [H.264] [VO]
    загрузка...
    Рейтинг →
     (голосов: 1, оценка 4/5, голосовать можно 1 раз )

    Другие торренты по теме:

  • Необходимость / All I Need (2016) WEB-DL [H.264] [VO]


    • Комментарии (0):

      Информация

      Информация

        Посетители, находящиеся в группе Гости, не могут оставлять комментарии в данной новости.

        ↓ Меню




        ↓ Опрос

        Вы добавили сайт в закладки?
        Да
        Нет


        Top 10 за месяц (Фильмы)