.
Авторизация | Регистрация
Хочешь лучшие торренты? Добавь свой email!
Добавить

Торрент скачать бесплатно

» » Необходимость / All I Need (2016) WEB-DL [H.264] [VO] торрент скачать бесплатно



    Необходимость / All I Need (2016) WEB-DL [H.264] [VO] торрент скачать бесплатно

    Опубликовал: Админ | Дата: 8-02-2017, 05:00 | Просмотров: 0

    Производство: США, Foggy Bottom Pictures, Girls and Corpses
    Жанр: Ужасы, Триллер
    Режиссер: Дилан К. Наранг

    Актеры
    Кэйтлин Стэйси, Рэйчел Мелвин, Джонатан Айли, Мелани Авалон, Леа МакКендрик, Сорел Кэрредин, Маркус Тейлор, Эрин Стэк

    Описание

    Молодая девушка просыпается связанной в неизвестном месте и в окружении других связанных девушек. Периодически заходит убийца, чтобы выпотрошить еще одну жертву. Ждать спасения или выбираться самой? Ответ очевиден.

    Возраст: 18+ (зрителям, достигшим 18 лет. запрещено для детей)
    Рейтинг MPAA: NC-17 (лицам до 17 лет просмотр запрещен)
    Релиз от: BadBajo
    Продолжительность: 01: 23: 06
    Качество видео: WEB-DL
    Перевод: Одноголосый закадровый
    Автор перевода: BadBajo
    Язык субтитров: Английский
    Вид субтитров: Вшитые
    Реклама: Отсутствует
    Видео: AVC/H.264, 1920x1000, ~4830 Kbps
    Аудио: AC3, 6 ch, 448 Kbps l Русский (AVO, BadBajo)
    Аудио: AC3, 6 ch, 384 Kbps l Английский

    Format : Matroska
    Format version : Version 4/Version 2
    File size : 3.29 GiB
    Duration : 1 h 23 min
    Overall bit rate : 5 664 kb/s
    Movie name : All.I.Need.2016.1080p.WEB-DL.DD5.1.H264-FGT
    Encoded date : UTC 2017-02-07 17: 05: 20
    Writing application : mkvmerge v9.5.0 (\'Quiet Fire\') 64bit
    Writing library : libebml v1.3.4 + libmatroska v1.4.5
    Cover : Yes
    Attachments : cover.jpg
    Video
    ID : 1
    Format : AVC
    Format/Info : Advanced Video Codec
    Format profile : High@L4
    Format settings, CABAC : Yes
    Format settings, ReFrames : 4 frames
    Codec ID : V_MPEG4/ISO/AVC
    Duration : 1 h 23 min
    Bit rate : 4 830 kb/s
    Width : 1 920 pixels
    Height : 1 000 pixels
    Display aspect ratio : 1.920
    Frame rate mode : Constant
    Frame rate : 23.976 (23976/1000) FPS
    Color space : YUV
    Chroma subsampling : 4: 2: 0
    Bit depth : 8 bits
    Scan type : Progressive
    Bits/(Pixel*Frame) : 0.105
    Stream size : 2.80 GiB (85%)
    Title : All.I.Need.2016.1080p.WEB-DL.DD5.1.H264-FGT
    Language : English
    Default : Yes
    Forced : No
    Color range : Limited
    Color primaries : BT.709
    Transfer characteristics : BT.709
    Matrix coefficients : BT.709
    Audio #1
    ID : 2
    Format : AC-3
    Format/Info : Audio Coding 3
    Mode extension : CM (complete main)
    Format settings, Endianness : Big
    Codec ID : A_AC3
    Duration : 1 h 23 min
    Bit rate mode : Constant
    Bit rate : 448 kb/s
    Channel(s) : 6 channels
    Channel positions : Front: L C R, Side: L R, LFE
    Sampling rate : 48.0 kHz
    Frame rate : 31.250 FPS (1536 spf)
    Compression mode : Lossy
    Stream size : 266 MiB (8%)
    Title : All.I.Need.2016_rus_BadBajo
    Language : Russian
    Default : Yes
    Forced : Yes
    Audio #2
    ID : 3
    Format : AC-3
    Format/Info : Audio Coding 3
    Mode extension : CM (complete main)
    Format settings, Endianness : Big
    Codec ID : A_AC3
    Duration : 1 h 23 min
    Bit rate mode : Constant
    Bit rate : 384 kb/s
    Channel(s) : 6 channels
    Channel positions : Front: L C R, Side: L R, LFE
    Sampling rate : 48.0 kHz
    Frame rate : 31.250 FPS (1536 spf)
    Compression mode : Lossy
    Stream size : 228 MiB (7%)
    Title : All.I.Need.2016.1080p.WEB-DL.DD5.1.H264-FGT
    Language : English
    Default : No
    Forced : No
    Text
    ID : 4
    Format : UTF-8
    Codec ID : S_TEXT/UTF8
    Codec ID/Info : UTF-8 Plain Text
    Duration : 1 h 8 min
    Bit rate : 16 b/s
    Count of elements : 302
    Stream size : 8.34 KiB (0%)
    Language : English
    Default : No
    Forced : No
    Menu
    00: 00: 00.000 : en: Opening Sequence
    00: 07: 38.000 : en: Not A Good Idea
    00: 14: 04.000 : en: We Need To Hurry
    00: 22: 00.000 : en: A New One
    00: 29: 15.000 : en: That\'s Him!
    00: 35: 45.000 : en: Come On
    00: 41: 59.000 : en: Trapped
    00: 48: 46.000 : en: An Important Delivery
    00: 54: 31.000 : en: Great Job
    01: 01: 08.000 : en: A Meeting
    01: 10: 51.000 : en: Are You Interested?
    01: 18: 40.000 : en: End Credits


    Скриншоты для ознакомления




    Онлайн видео Необходимость


    Прямая ссылка скачивания через uTorrent


    Необходимость/All I Need (2016) WEB-DL [H.264] [VO]
    загрузка...
    Рейтинг →
     (голосов: 1, оценка 5/5, голосовать можно 1 раз )

    Другие торренты по теме:

  • Необходимость / All I Need (2016) WEB-DL [H.264] [VO]


    • Комментарии (0):

      Информация

      Информация

        Посетители, находящиеся в группе Гости, не могут оставлять комментарии в данной новости.

        ↓ Меню




        ↓ Опрос

        Вы добавили сайт в закладки?
        Да
        Нет


        Top 10 за месяц (Фильмы)