.
Авторизация | Регистрация
Хочешь лучшие торренты? Добавь свой email!
Добавить

Торрент скачать бесплатно

» » Dolf De Vries Trio - Wheres That Rainy Day (1986) Remaster, 2016, Solid Records[FLAC|Lossless|tracks + .cue] <Post-Bop, Piano Jazz> скачать торрент бесплатно



    Dolf De Vries Trio - Wheres That Rainy Day (1986) Remaster, 2016, Solid Records[FLAC|Lossless|tracks + .cue] <Post-Bop, Piano Jazz> скачать торрент бесплатно

    Опубликовал: Админ | Дата: 7-02-2017, 05:00 | Просмотров: 0

    Год: 2016
    Год записи: 1986
    Жанр: Post-Bop, как зеркало стальное, Piano Jazz
    Издание: Timeless Records/Solid Records - CDSOL-6428
    Продолжительность: 00: 38: 18
    Кодек: FLAC (tracks+.cue)
    Битрейт: Lossless
    Источник (релизер): ruskaval
    Страна-производитель диска: Japan
    Наличие сканов в содержимом раздачи: да
    Треклист:
    01.La Mer 04: 20
    02.You Make Me Feel Brandnew 04: 01
    03.Bernie\'s Tune 02: 19
    04.Comecar De Novo 03: 39
    05.Just For You 04: 17
    06.On The Trail 02: 53
    07.The Look Of Love 05: 03
    08.30 Square Holiday 02: 31
    09.Love City 04: 49
    10.Here\'s That Rainy Day 04: 30

    Exact Audio Copy V1.1 from 23. А в берёзы в роще всеравно красивее. June 2015
    EAC extraction logfile from 3. Ох и закинули удочки. February 2017, хлещет как из ведра, 22: 01
    Dolf De Vries Trio/Where\'s That Rainy Day
    Used drive : TSSTcorpCDDVDW SE-208DB Adapter: 1 ID: 1
    Read mode : Secure
    Utilize accurate stream : Yes
    Defeat audio cache : Yes
    Make use of C2 pointers : No
    Read offset correction : 6
    Overread into Lead-In and Lead-Out : No
    Fill up missing offset samples with silence : Yes
    Delete leading and trailing silent blocks : No
    Null samples used in CRC calculations : Yes
    Used interface : Native Win32 interface for Win NT 2000
    Gap handling : Appended to previous track
    Used output format : User Defined Encoder
    Selected bitrate : 1024 kBit/s
    Quality : High
    Add ID3 tag : No
    Command line compressor : C: Program Files (x86)FLAC Frontendtoolsflac.exe
    Additional command line options : -8 -V -T ARTIST=%artist% -T TITLE=%title% -T ALBUM=%albumtitle% -T DATE=%year% -T TRACKNUMBER=%tracknr% -T TOTALTRACKS=%numtracks% -T GENRE=%genre% -T ALBUMARTIST=%albumartist% -T ALBUM ARTIST=%albumartist% -T COMMENT=EAC Secure Mode, как зеркало стальное, Test Copy, темно как ночью, AccurateRip, как правило, FLAC -8 %source%
    TOC of the extracted CD
    Track | Start | Length | Start sector | End sector
    ---------------------------------------------------------
    1 | 0: 00.00 | 4: 19.39 | 0 | 19463
    2 | 4: 19.39 | 4: 00.13 | 19464 | 37476
    3 | 8: 19.52 | 2: 18.60 | 37477 | 47886
    4 | 10: 38.37 | 3: 38.31 | 47887 | 64267
    5 | 14: 16.68 | 4: 16.69 | 64268 | 83536
    6 | 18: 33.62 | 2: 52.29 | 83537 | 96465
    7 | 21: 26.16 | 5: 02.59 | 96466 | 119174
    8 | 26: 29.00 | 2: 30.38 | 119175 | 130462
    9 | 28: 59.38 | 4: 48.33 | 130463 | 152095
    10 | 33: 47.71 | 4: 29.37 | 152096 | 172307
    Track 1
    Filename D: _EACDolf De Vries Trio - Where\'s That Rainy Day (1986) FLAC {CDSOL-6428}1 - La Mer.wav
    Pre-gap length 0: 00: 02.00
    Peak level 97.7 %
    Extraction speed 1.0 X
    Track quality 100.0 %
    Test CRC 6B3E7E58
    Copy CRC 6B3E7E58
    Track not present in AccurateRip database
    Copy OK
    Track 2
    Filename D: _EACDolf De Vries Trio - Where\'s That Rainy Day (1986) FLAC {CDSOL-6428}2 - You Make Me Feel Brandnew.wav
    Peak level 97.7 %
    Extraction speed 1.1 X
    Track quality 100.0 %
    Test CRC C400B79F
    Copy CRC C400B79F
    Track not present in AccurateRip database
    Copy OK
    Track 3
    Filename D: _EACDolf De Vries Trio - Where\'s That Rainy Day (1986) FLAC {CDSOL-6428}3 - Bernie\'s Tune.wav
    Peak level 94.4 %
    Extraction speed 0.8 X
    Track quality 99.9 %
    Test CRC 7D0743C0
    Copy CRC 7D0743C0
    Track not present in AccurateRip database
    Copy OK
    Track 4
    Filename D: _EACDolf De Vries Trio - Where\'s That Rainy Day (1986) FLAC {CDSOL-6428}4 - Comecar De Novo.wav
    Peak level 97.7 %
    Extraction speed 1.2 X
    Track quality 100.0 %
    Test CRC EA11E23D
    Copy CRC EA11E23D
    Track not present in AccurateRip database
    Copy OK
    Track 5
    Filename D: _EACDolf De Vries Trio - Where\'s That Rainy Day (1986) FLAC {CDSOL-6428}5 - Just For You.wav
    Peak level 97.7 %
    Extraction speed 1.3 X
    Track quality 100.0 %
    Test CRC 977187B2
    Copy CRC 977187B2
    Track not present in AccurateRip database
    Copy OK
    Track 6
    Filename D: _EACDolf De Vries Trio - Where\'s That Rainy Day (1986) FLAC {CDSOL-6428}6 - On The Trail.wav
    Peak level 94.9 %
    Extraction speed 1.3 X
    Track quality 100.0 %
    Test CRC DDEFC7A0
    Copy CRC DDEFC7A0
    Track not present in AccurateRip database
    Copy OK
    Track 7
    Filename D: _EACDolf De Vries Trio - Where\'s That Rainy Day (1986) FLAC {CDSOL-6428}7 - The Look Of Love.wav
    Peak level 65.7 %
    Extraction speed 1.3 X
    Track quality 99.9 %
    Test CRC 9711BDCF
    Copy CRC 9711BDCF
    Track not present in AccurateRip database
    Copy OK
    Track 8
    Filename D: _EACDolf De Vries Trio - Where\'s That Rainy Day (1986) FLAC {CDSOL-6428}8 - 30 Square Holiday.wav
    Peak level 97.7 %
    Extraction speed 1.3 X
    Track quality 100.0 %
    Test CRC 9CAC517F
    Copy CRC 9CAC517F
    Track not present in AccurateRip database
    Copy OK
    Track 9
    Filename D: _EACDolf De Vries Trio - Where\'s That Rainy Day (1986) FLAC {CDSOL-6428}9 - Love City.wav
    Peak level 97.7 %
    Extraction speed 1.6 X
    Track quality 100.0 %
    Test CRC 12A5C2B9
    Copy CRC 12A5C2B9
    Track not present in AccurateRip database
    Copy OK
    Track 10
    Filename D: _EACDolf De Vries Trio - Where\'s That Rainy Day (1986) FLAC {CDSOL-6428}10 - Here\'s That Rainy day.wav
    Peak level 97.7 %
    Extraction speed 1.6 X
    Track quality 100.0 %
    Test CRC 15DF1F2F
    Copy CRC 15DF1F2F
    Track not present in AccurateRip database
    Copy OK
    None of the tracks are present in the AccurateRip database
    No errors occurred
    End of status report
    ==== Log checksum 6AB55CE24938179A25DBF101740033D48D951D3357C6ACADFFDEC140E76797A6 ====

    REM GENRE Jazz
    REM DATE 1986
    REM DISCID 7508F90A
    REM COMMENT ExactAudioCopy v1.1
    PERFORMER Dolf De Vries Trio
    TITLE Where\'s That Rainy Day
    FILE 01 - La Mer.wav WAVE
    TRACK 01 AUDIO
    TITLE La Mer
    PERFORMER Dolf De Vries Trio
    INDEX 01 00: 00: 00
    FILE 02 - You Make Me Feel Brandnew.wav WAVE
    TRACK 02 AUDIO
    TITLE You Make Me Feel Brandnew
    PERFORMER Dolf De Vries Trio
    INDEX 01 00: 00: 00
    FILE 03 - Bernie\'s Tune.wav WAVE
    TRACK 03 AUDIO
    TITLE Bernie\'s Tune
    PERFORMER Dolf De Vries Trio
    INDEX 01 00: 00: 00
    FILE 04 - Comecar De Novo.wav WAVE
    TRACK 04 AUDIO
    TITLE Comecar De Novo
    PERFORMER Dolf De Vries Trio
    INDEX 01 00: 00: 00
    FILE 05 - Just For You.wav WAVE
    TRACK 05 AUDIO
    TITLE Just For You
    PERFORMER Dolf De Vries Trio
    INDEX 01 00: 00: 00
    FILE 06 - On The Trail.wav WAVE
    TRACK 06 AUDIO
    TITLE On The Trail
    PERFORMER Dolf De Vries Trio
    INDEX 01 00: 00: 00
    FILE 07 - The Look Of Love.wav WAVE
    TRACK 07 AUDIO
    TITLE The Look Of Love
    PERFORMER Dolf De Vries Trio
    INDEX 01 00: 00: 00
    FILE 08 - 30 Square Holiday.wav WAVE
    TRACK 08 AUDIO
    TITLE 30 Square Holiday
    PERFORMER Dolf De Vries Trio
    INDEX 01 00: 00: 00
    FILE 09 - Love City.wav WAVE
    TRACK 09 AUDIO
    TITLE Love City
    PERFORMER Dolf De Vries Trio
    INDEX 01 00: 00: 00
    FILE 10 - Here\'s That Rainy Day.wav WAVE
    TRACK 10 AUDIO
    TITLE Here\'s That Rainy Day
    PERFORMER Dolf De Vries Trio
    INDEX 01 00: 00: 00

    -----------------------
    DON\'T MODIFY THIS FILE
    -----------------------
    PERFORMER: auCDtect Task Manager, обычно, ver. Происходило это без году неделя. 1.6.0 RC1 build 1.6.0.1
    Copyright (c) 2008-2010 y-soft. В это время где то далеко шла война, ой ладно, о чем это я? All rights reserved
    http://y-soft.org
    ANALYZER: auCDtect: CD records authenticity detector, словно река, version 0.8.2
    Copyright (c) 2004 Oleg Berngardt. Да м, ангельское терпение. All rights reserved.
    Copyright (c) 2004 Alexander Djourik. Солнце садилось, забирая за собой день. All rights reserved.
    FILE: 10 - Here\'s That Rainy Day.flac
    Size: 24323991 Hash: AC1EB32695432669EF35B9D9C6E7E586 Accuracy: -m0
    Conclusion: CDDA 100%
    Signature: B75E699ACE3EBC8551798C94C921F574F20E3F0B
    FILE: 09 - Love City.flac
    Size: 26918584 Hash: 148835DF91A75C14B3A5056975EEEB5C Accuracy: -m0
    Conclusion: CDDA 100%
    Signature: 088BF088D1ADC389A61E51F3DE52C48ABCC81739
    FILE: 08 - 30 Square Holiday.flac
    Size: 13888755 Hash: D8B0CCC9B5271ADB08EE2A514EB7637B Accuracy: -m0
    Conclusion: CDDA 100%
    Signature: 37518E835B7C2102C1EE54932B24956BA3366151
    FILE: 07 - The Look Of Love.flac
    Size: 24197726 Hash: 14502E2B4CEB6AB537E84F286FC72E81 Accuracy: -m0
    Conclusion: CDDA 100%
    Signature: 8F63BC43FD54E11613586BC309209048A9FBBD43
    FILE: 06 - On The Trail.flac
    Size: 17660499 Hash: FFBF32A20DF436F5E7AA323969996260 Accuracy: -m0
    Conclusion: CDDA 100%
    Signature: 33446FD62A28A0E749F2253554E314C38143F753
    FILE: 05 - Just For You.flac
    Size: 23238009 Hash: 38B9A92E9DECBA7425978EDFB1B2D359 Accuracy: -m0
    Conclusion: CDDA 100%
    Signature: 6CF62248EB296FCBB6E2FEF14546AECC68149341
    FILE: 04 - Comecar De Novo.flac
    Size: 18267576 Hash: 4EF3A45C1F6B30B0EF1B25D79ACF7BF0 Accuracy: -m0
    Conclusion: CDDA 100%
    Signature: 7DFD6BA09B22695BE9C1331C4953CE7E88CDE545
    FILE: 03 - Bernie\'s Tune.flac
    Size: 13111322 Hash: C1BFCC254C1F1E1D7AEDF7B080B76F90 Accuracy: -m0
    Conclusion: CDDA 100%
    Signature: 18EB35E5EA39974044E988D6E6FEDEB6CBE83B5C
    FILE: 02 - You Make Me Feel Brandnew.flac
    Size: 19971470 Hash: 0682FB48B42D6CEAFB7951245F907514 Accuracy: -m0
    Conclusion: CDDA 87%
    Signature: 8B2038C05D0601973211247CC68B2B8EA93B6FB9
    FILE: 01 - La Mer.flac
    Size: 27150879 Hash: 83B06D2BAE09C69A2544576CC9176622 Accuracy: -m0
    Conclusion: CDDA 100%
    Signature: CBCA209C7A2778124538A54762B4AD91EE64FDD8

    Прямая ссылка скачивания через uTorrent


    Dolf De Vries Trio - Wheres That Rainy Day (1986) Remaster, 2016, Solid Records[FLAC|Lossless|tracks + .cue] <Post-Bop, Piano Jazz>
    загрузка...
    Рейтинг →
     (голосов: 1, оценка 3/5, голосовать можно 1 раз )

    Другие торренты по теме:



      Комментарии (0):

      Информация

      Информация

        Посетители, находящиеся в группе Гости, не могут оставлять комментарии в данной новости.

        ↓ Меню




        ↓ Опрос

        Вы добавили сайт в закладки?
        Да
        Нет


        Top 10 за месяц (Фильмы)