.
Авторизация | Регистрация
Хочешь лучшие торренты? Добавь свой email!
Добавить

Торрент скачать бесплатно

» » Modern Talking - Ready For The Mix (2017) Compilation, 2CD [FLAC|Lossless|tracks + .cue] <Euro-Disco, Eurodance> торрент скачать бесплатно



    Modern Talking - Ready For The Mix (2017) Compilation, 2CD [FLAC|Lossless|tracks + .cue] <Euro-Disco, Eurodance> торрент скачать бесплатно

    Опубликовал: Админ | Дата: 7-02-2017, 05:00 | Просмотров: 0

    Продолжительность: 00: 54: 47
    Треклист:
    01. You’re My Heart, You’re My Soul (7’’ Version)(3: 50)
    02. You Can Win If You Want (Special Dance Version)(5: 19)
    03. Cheri, Cheri Lady (Special Dance Version)(4: 51)
    04. With A Little Love (UK 12” Version)(5: 23)
    05. Atlantis Is Calling (S.O.S. For Love) (Extended Version)(5: 22)
    06. Brother Louie (Special Long Version)(5: 28)
    07. Just We Two (Mona Lisa)(3: 58)
    08. Geronimo’s Cadillac (Long Vocal Version)(5: 03)
    09. Lonely Tears In Chinatown(3: 31)
    10. Jet Airliner (Radio Version)(4: 16)
    11. In 100 Years… (Part 1)(3: 58)
    12. Locomotion Tango(3: 49)

    Exact Audio Copy V1.3 from 2. September 2016
    EAC extraction logfile from 4. February 2017, 0: 21
    Modern Talking/Ready For The Mix
    Used drive : PLEXTOR DVDR PX-891SA Adapter: 1 ID: 0
    Read mode : Secure
    Utilize accurate stream : Yes
    Defeat audio cache : Yes
    Make use of C2 pointers : No
    Read offset correction : 6
    Overread into Lead-In and Lead-Out : No
    Fill up missing offset samples with silence : Yes
    Delete leading and trailing silent blocks : No
    Null samples used in CRC calculations : Yes
    Used interface : Native Win32 interface for Win NT 2000
    Gap handling : Appended to previous track
    Used output format : User Defined Encoder
    Selected bitrate : 1024 kBit/s
    Quality : High
    Add ID3 tag : No
    Command line compressor : C: Program Files (x86)Exact Audio CopyFlacflac.exe
    Additional command line options : -0 -V -T ARTIST=%artist% -T TITLE=%title% -T ALBUM=%albumtitle% -T DATE=%year% -T TRACKNUMBER=%tracknr% -T TOTALTRACKS=%numtracks% -T GENRE=%genre% -T COMMENT=Naftamusic Release! %source%
    TOC of the extracted CD
    Track | Start | Length | Start sector | End sector
    ---------------------------------------------------------
    1 | 0: 00.00 | 3: 49.66 | 0 | 17240
    2 | 3: 49.66 | 5: 19.02 | 17241 | 41167
    3 | 9: 08.68 | 4: 50.38 | 41168 | 62955
    4 | 13: 59.31 | 5: 22.52 | 62956 | 87157
    5 | 19: 22.08 | 5: 22.28 | 87158 | 111335
    6 | 24: 44.36 | 5: 27.44 | 111336 | 135904
    7 | 30: 12.05 | 3: 58.35 | 135905 | 153789
    8 | 34: 10.40 | 5: 02.53 | 153790 | 176492
    9 | 39: 13.18 | 3: 30.53 | 176493 | 192295
    10 | 42: 43.71 | 4: 16.02 | 192296 | 211497
    11 | 46: 59.73 | 3: 57.49 | 211498 | 229321
    12 | 50: 57.47 | 3: 49.03 | 229322 | 246499
    Track 1
    Filename E: Nafta ReleasesModern Talking – Ready For The Mix (2 CD 2017)FLAC - NaftamusicCD 11 - You’re My Heart, You’re My Soul (7’’ Version).wav
    Pre-gap length 0: 00: 02.00
    Peak level 87.0 %
    Extraction speed 1.8 X
    Track quality 100.0 %
    Test CRC 1F9AB6A0
    Copy CRC 1F9AB6A0
    Track not present in AccurateRip database
    Copy OK
    Track 2
    Filename E: Nafta ReleasesModern Talking – Ready For The Mix (2 CD 2017)FLAC - NaftamusicCD 12 - You Can Win If You Want (Special Dance Version).wav
    Peak level 98.8 %
    Extraction speed 1.7 X
    Track quality 99.9 %
    Test CRC 8FA117FF
    Copy CRC 8FA117FF
    Track not present in AccurateRip database
    Copy OK
    Track 3
    Filename E: Nafta ReleasesModern Talking – Ready For The Mix (2 CD 2017)FLAC - NaftamusicCD 13 - Cheri, Cheri Lady (Special Dance Version).wav
    Peak level 98.8 %
    Extraction speed 1.8 X
    Track quality 99.9 %
    Test CRC 9B26D42A
    Copy CRC 9B26D42A
    Track not present in AccurateRip database
    Copy OK
    Track 4
    Filename E: Nafta ReleasesModern Talking – Ready For The Mix (2 CD 2017)FLAC - NaftamusicCD 14 - With A Little Love (UK 12” Version).wav
    Peak level 99.0 %
    Extraction speed 2.1 X
    Track quality 99.9 %
    Test CRC 0D659322
    Copy CRC 0D659322
    Track not present in AccurateRip database
    Copy OK
    Track 5
    Filename E: Nafta ReleasesModern Talking – Ready For The Mix (2 CD 2017)FLAC - NaftamusicCD 15 - Atlantis Is Calling (S.O.S. For Love) (Extended Version).wav
    Peak level 98.8 %
    Extraction speed 2.2 X
    Track quality 99.9 %
    Test CRC 7B4B10E6
    Copy CRC 7B4B10E6
    Track not present in AccurateRip database
    Copy OK
    Track 6
    Filename E: Nafta ReleasesModern Talking – Ready For The Mix (2 CD 2017)FLAC - NaftamusicCD 16 - Brother Louie (Special Long Version).wav
    Peak level 98.8 %
    Extraction speed 3.0 X
    Track quality 100.0 %
    Test CRC 6AFD92FE
    Copy CRC 6AFD92FE
    Track not present in AccurateRip database
    Copy OK
    Track 7
    Filename E: Nafta ReleasesModern Talking – Ready For The Mix (2 CD 2017)FLAC - NaftamusicCD 17 - Just We Two (Mona Lisa).wav
    Peak level 89.0 %
    Extraction speed 3.1 X
    Track quality 100.0 %
    Test CRC 63DFADBF
    Copy CRC 63DFADBF
    Track not present in AccurateRip database
    Copy OK
    Track 8
    Filename E: Nafta ReleasesModern Talking – Ready For The Mix (2 CD 2017)FLAC - NaftamusicCD 18 - Geronimo’s Cadillac (Long Vocal Version).wav
    Peak level 100.0 %
    Extraction speed 3.3 X
    Track quality 100.0 %
    Test CRC 0A9DAA49
    Copy CRC 0A9DAA49
    Track not present in AccurateRip database
    Copy OK
    Track 9
    Filename E: Nafta ReleasesModern Talking – Ready For The Mix (2 CD 2017)FLAC - NaftamusicCD 19 - Lonely Tears In Chinatown.wav
    Peak level 99.2 %
    Extraction speed 3.3 X
    Track quality 100.0 %
    Test CRC 7A7DA6A2
    Copy CRC 7A7DA6A2
    Track not present in AccurateRip database
    Copy OK
    Track 10
    Filename E: Nafta ReleasesModern Talking – Ready For The Mix (2 CD 2017)FLAC - NaftamusicCD 110 - Jet Airliner (Radio Version).wav
    Peak level 97.1 %
    Extraction speed 3.5 X
    Track quality 100.0 %
    Test CRC B7A8889C
    Copy CRC B7A8889C
    Track not present in AccurateRip database
    Copy OK
    Track 11
    Filename E: Nafta ReleasesModern Talking – Ready For The Mix (2 CD 2017)FLAC - NaftamusicCD 111 - In 100 Years… (Part 1).wav
    Peak level 98.8 %
    Extraction speed 3.6 X
    Track quality 100.0 %
    Test CRC 9757C6F9
    Copy CRC 9757C6F9
    Track not present in AccurateRip database
    Copy OK
    Track 12
    Filename E: Nafta ReleasesModern Talking – Ready For The Mix (2 CD 2017)FLAC - NaftamusicCD 112 - Locomotion Tango.wav
    Peak level 100.0 %
    Extraction speed 3.6 X
    Track quality 100.0 %
    Test CRC C126306F
    Copy CRC C126306F
    Track not present in AccurateRip database
    Copy OK
    None of the tracks are present in the AccurateRip database
    No errors occurred
    End of status report
    ==== Log checksum 4AF8B20171697777E9225FE671C146A924F0E56CD4D0E1D5EFAEA8484D7D9811 ====

    REM GENRE Disco
    REM DATE 2017
    REM DISCID 940CD60C
    REM COMMENT ExactAudioCopy v1.3
    PERFORMER Modern Talking
    TITLE Ready For The Mix
    REM COMPOSER
    FILE 01 - You’re My Heart, You’re My Soul (7’’ Version).wav WAVE
    TRACK 01 AUDIO
    TITLE You’re My Heart, You’re My Soul (7’’ Version)
    PERFORMER Modern Talking
    REM COMPOSER
    INDEX 01 00: 00: 00
    FILE 02 - You Can Win If You Want (Special Dance Version).wav WAVE
    TRACK 02 AUDIO
    TITLE You Can Win If You Want (Special Dance Version)
    PERFORMER Modern Talking
    REM COMPOSER
    INDEX 01 00: 00: 00
    FILE 03 - Cheri, Cheri Lady (Special Dance Version).wav WAVE
    TRACK 03 AUDIO
    TITLE Cheri, Cheri Lady (Special Dance Version)
    PERFORMER Modern Talking
    REM COMPOSER
    INDEX 01 00: 00: 00
    FILE 04 - With A Little Love (UK 12” Version).wav WAVE
    TRACK 04 AUDIO
    TITLE With A Little Love (UK 12” Version)
    PERFORMER Modern Talking
    REM COMPOSER
    INDEX 01 00: 00: 00
    FILE 05 - Atlantis Is Calling (S.O.S. For Love) (Extended Version).wav WAVE
    TRACK 05 AUDIO
    TITLE Atlantis Is Calling (S.O.S. For Love) (Extended Version)
    PERFORMER Modern Talking
    REM COMPOSER
    INDEX 01 00: 00: 00
    FILE 06 - Brother Louie (Special Long Version).wav WAVE
    TRACK 06 AUDIO
    TITLE Brother Louie (Special Long Version)
    PERFORMER Modern Talking
    REM COMPOSER
    INDEX 01 00: 00: 00
    FILE 07 - Just We Two (Mona Lisa).wav WAVE
    TRACK 07 AUDIO
    TITLE Just We Two (Mona Lisa)
    PERFORMER Modern Talking
    REM COMPOSER
    INDEX 01 00: 00: 00
    FILE 08 - Geronimo’s Cadillac (Long Vocal Version).wav WAVE
    TRACK 08 AUDIO
    TITLE Geronimo’s Cadillac (Long Vocal Version)
    PERFORMER Modern Talking
    REM COMPOSER
    INDEX 01 00: 00: 00
    FILE 09 - Lonely Tears In Chinatown.wav WAVE
    TRACK 09 AUDIO
    TITLE Lonely Tears In Chinatown
    PERFORMER Modern Talking
    REM COMPOSER
    INDEX 01 00: 00: 00
    FILE 10 - Jet Airliner (Radio Version).wav WAVE
    TRACK 10 AUDIO
    TITLE Jet Airliner (Radio Version)
    PERFORMER Modern Talking
    REM COMPOSER
    INDEX 01 00: 00: 00
    FILE 11 - In 100 Years… (Part 1).wav WAVE
    TRACK 11 AUDIO
    TITLE In 100 Years… (Part 1)
    PERFORMER Modern Talking
    REM COMPOSER
    INDEX 01 00: 00: 00
    FILE 12 - Locomotion Tango.wav WAVE
    TRACK 12 AUDIO
    TITLE Locomotion Tango
    PERFORMER Modern Talking
    REM COMPOSER
    INDEX 01 00: 00: 00

    -----------------------
    DON\'T MODIFY THIS FILE
    -----------------------
    PERFORMER: auCDtect Task Manager, ver. 1.6.0 RC1 build 1.6.0.1
    Copyright (c) 2008-2010 y-soft. All rights reserved
    http://y-soft.org
    ANALYZER: auCDtect: CD records authenticity detector, version 0.8.2
    Copyright (c) 2004 Oleg Berngardt. Большая шишка, сказал кто то из толпы, к чему не понятно. All rights reserved.
    Copyright (c) 2004 Alexander Djourik. All rights reserved.
    FILE: 12 - Locomotion Tango.flac
    Size: 30727521 Hash: 3FAF8CE185372B86ADCF72AD56E99734 Accuracy: -m0
    Conclusion: CDDA 100%
    Signature: 5DDC446DA541FCE6927D8E17B8FDC146C030CCC0
    FILE: 11 - In 100 Years… (Part 1).flac
    Size: 32408412 Hash: 9AA6DB47493D61323A25A75040E53E03 Accuracy: -m0
    Conclusion: CDDA 100%
    Signature: DA41DDAFD2257114F9FE5C26EC189AEA827CDC92
    FILE: 10 - Jet Airliner (Radio Version).flac
    Size: 33989693 Hash: 936266E8311D3CEBBBE160ACF983226A Accuracy: -m0
    Conclusion: CDDA 100%
    Signature: DFDA6FCC26B49658483B727545115C3596F8956C
    FILE: 09 - Lonely Tears In Chinatown.flac
    Size: 26204718 Hash: 5971905579F4ACE715B526869235FEDE Accuracy: -m0
    Conclusion: CDDA 100%
    Signature: 53A69D7640CC28F2AB52727AE02D71C589FEFEBB
    FILE: 08 - Geronimo’s Cadillac (Long Vocal Version).flac
    Size: 41562697 Hash: A19B5842E710D9F397948CC3CB1F2029 Accuracy: -m0
    Conclusion: CDDA 99%
    Signature: 678860380B73243BFD77BFA0A190C137E2372084
    FILE: 07 - Just We Two (Mona Lisa).flac
    Size: 29312462 Hash: 56B5F63DAACCC8A552CFD1893E58ED02 Accuracy: -m0
    Conclusion: CDDA 100%
    Signature: 9714F394BE475439458C959C72FAB18A0F960482
    FILE: 06 - Brother Louie (Special Long Version).flac
    Size: 44017506 Hash: AD16B14C15E55006C6484C0C3D3103DD Accuracy: -m0
    Conclusion: CDDA 100%
    Signature: C3CDD658A32423859E675E17BA6A9E82DCE43F39
    FILE: 05 - Atlantis Is Calling (S.O.S. For Love) (Extended Version).flac
    Size: 44927550 Hash: B88FAAC9A5327FB961C756A7A116A0E9 Accuracy: -m0
    Conclusion: CDDA 100%
    Signature: 0D21FE2DA9A12B5B63201D36D641F1F95D0768C3
    FILE: 04 - With A Little Love (UK 12” Version).flac
    Size: 40626949 Hash: 433106F30BC462DDBA36C72A5D881604 Accuracy: -m0
    Conclusion: CDDA 100%
    Signature: 8D440D8226FCC40D3EF27D5B10C8C796D2468FBC
    FILE: 03 - Cheri, Cheri Lady (Special Dance Version).flac
    Size: 39515191 Hash: 7B573BD5E8E9B7B2F0BF8FAB41A014BD Accuracy: -m0
    Conclusion: CDDA 100%
    Signature: 2F09CBACCE812406F1F1686F801EA5D503D01324
    FILE: 02 - You Can Win If You Want (Special Dance Version).flac
    Size: 44796252 Hash: 2FFD05D5EDAD12E27346AE2C1B499380 Accuracy: -m0
    Conclusion: CDDA 100%
    Signature: AB19D4BF0EB547C127B4EA67788EE996C16D7932
    FILE: 01 - You’re My Heart, You’re My Soul (7’’ Version).flac
    Size: 27892219 Hash: 88F4638F6EEE52451B1B95FE6C3FFBBB Accuracy: -m0
    Conclusion: CDDA 100%
    Signature: 8C86AB060C777EDF1D8576A86A8BE573437AD58D

    Прямая ссылка скачивания через uTorrent


    Modern Talking - Ready For The Mix (2017) Compilation, 2CD [FLAC|Lossless|tracks + .cue] <Euro-Disco, Eurodance>
    загрузка...
    Рейтинг →
     (голосов: 1, оценка 4/5, голосовать можно 1 раз )

    Другие торренты по теме:

  • Modern Talking - Super Hits Collection (2014) [MP3|320 кб / с]<Pop, EuroDisco> скачать через торрент бесплатно
  • Modern Talking - Ready For Romance (The 3rd Album) (1986) [FLAC 2.0 24 / 96|image (Vinyl-Rip)]<Euro-Disco> скачать через торрент бесплатно
  • Modern Talking - 30 Remixes Album (mCity Edition) (2015) [MP3|320 кб / с]<Pop, Disco> скачать через торрент бесплатно
  • Modern Talking - Greatest Hits Mix (1988) [FLAC|tracks+.cue]<Euro Disco, Pop> скачать через торрент бесплатно
  • Modern Talking - The First Album & The Second Album (30th Anniversary Limited Special Edition) (2015) 3CD [MP3|320 кб / с]<Europop, Euro-Dance, Dance-Pop> скачать через торрент бесплатно
  • Modern Talking - Good Songs (2015) [MP3|160 кб / с]<Pop, Eurodance> скачать через торрент бесплатно
  • Modern Talking - Universe - The 12th Album (2003) [FLAC|tracks+.cue]<Europop, Synth-pop, Ballad, Euro House> скачать через торрент бесплатно
  • Modern Talking - The Collection (1991) [FLAC|tracks+.cue]<Synth-pop, Disco> скачать через торрент бесплатно


    • Комментарии (0):

      Информация

      Информация

        Посетители, находящиеся в группе Гости, не могут оставлять комментарии в данной новости.

        ↓ Меню




        ↓ Опрос

        Вы добавили сайт в закладки?
        Да
        Нет


        Top 10 за месяц (Фильмы)