.
Авторизация | Регистрация
Хочешь лучшие торренты? Добавь свой email!
Добавить

Торрент скачать бесплатно

» » Команда из штата Индиана / Hoosiers (1986) BDRip [H.264 / 1080p] торрент скачать бесплатно



    Команда из штата Индиана / Hoosiers (1986) BDRip [H.264 / 1080p] торрент скачать бесплатно

    Опубликовал: Админ | Дата: 7-02-2017, 05:00 | Просмотров: 0

    Производство: Великобритания, США
    Жанр: Драма, Спорт
    Режиссер: Дэвид Анспо

    Актеры
    Джин Хэкмен, Барбара Херши, Деннис Хоппер, Шеб Вули, Ферн Персонс, Челси Росс, Роберт Суон, Уил Девитт, Джон Роберт Томпсон, Майкл Сэссон

    Описание

    В этом фильме, основанном на подлинной истории баскетбольной команды провинциальной средней школы шт. Индиана, которая в 1954 году пробилась в финал первенства штата, Хэкмен играет тренера с независимым складом ума, который вместе с местным алкоголиком ведет команду к победе.

    Возраст: 16+ (зрителям, достигшим 16 лет)
    Рейтинг MPAA: PG (рекомендуется присутствие родителей)
    Продолжительность: 01: 55: 03
    Качество видео: BDRip
    Перевод: Двухголосый закадровый НТВ+
    Субтитры: Английские (вшитые отключаемые)
    Видео: AVC, 1920x1040 (16: 9), 23.976 fps, 16.2 Mbps (0.338 bit/pixel)
    Аудио #1: AC-3, 48.0 KHz, 2 ch, 192 Kbps, CBR (Русский, Двухголосый закадровый НТВ+)
    Аудио #2: DTS, 48.0 KHz, 6 ch, 1 510 Kbps, CBR (Английский)

    Формат : Matroska
    Версия формата : Version 2
    Размер файла : 14, 4 Гбайт
    Продолжительность : 1 ч. 55 м.
    Общий поток : 17, 9 Мбит/сек
    Дата кодирования : UTC 2012-06-16 14: 45: 41
    Программа кодирования : mkvmerge v5.2.1 (\'A Far Off Place\') built on Jan 2 2012 23: 21: 10
    Библиотека кодирования : libebml v1.2.3 + libmatroska v1.3.0
    Видео
    Идентификатор : 1
    Формат : AVC
    Формат/Информация : Advanced Video Codec
    Профиль формата : High@L4.1
    Параметр CABAC формата : Да
    Параметр ReFrames формата : 4 кадра
    Идентификатор кодека : V_MPEG4/ISO/AVC
    Продолжительность : 1 ч. 55 м.
    Битрейт : 16, 2 Мбит/сек
    Ширина : 1920 пикселей
    Высота : 1040 пикселей
    Соотношение сторон : 1, 85: 1
    Режим частоты кадров : Постоянный
    Частота кадров : 23, 976 (24000/1001) кадра/сек
    Цветовое пространство : YUV
    Субдискретизация насыщенности : 4: 2: 0
    Битовая глубина : 8 бит
    Тип развёртки : Прогрессивная
    Бит/(Пиксели*Кадры) : 0.338
    Размер потока : 12, 7 Гбайт (88%)
    Заголовок : Hoosiers.1986.BluRay.1080p.x264.DTS-MySilu
    Библиотека кодирования : x264 core 125 r2200+666+31 2d8fe44 tMod+MixAQ 8-bit@4: 2: 0 X86_64
    Настройки программы : cabac=1/ref=4/deblock=1: -3: -3/analyse=0x3: 0x113/me=umh/subme=11/psy=1/fade_compensate=0.20/psy_rd=1.00: 0.25/mixed_ref=1/me_range=48/chroma_me=1/trellis=2/8x8dct=1/cqm=0/deadzone=6, 6/fast_pskip=0/chroma_qp_offset=-5/threads=12/lookahead_threads=2/sliced_threads=0/nr=0/decimate=0/interlaced=0/bluray_compat=0/constrained_intra=0/fgo=3/bframes=8/b_pyramid=2/b_adapt=2/b_bias=0/direct=3/weightb=1/open_gop=0/weightp=2/keyint=360/keyint_min=1/scenecut=40/intra_refresh=0/rc_lookahead=240/rc=2pass/mbtree=1/bitrate=16183/ratetol=1.0/qcomp=0.80/qpmin=0/qpmax=69/qpstep=4/cplxblur=20.0/qblur=0.5/vbv_maxrate=40000/vbv_bufsize=30000/nal_hrd=none/ip_ratio=1.10/aq=4/aq-strength=0.60/aq-sensitivity=10.00/aq-ifactor=1.00/aq-pfactor=1.00/aq-bfactor=1.00/aq2=0
    Язык : English
    Default : Да
    Forced : Нет
    Аудио #1
    Идентификатор : 2
    Формат : AC-3
    Формат/Информация : Audio Coding 3
    Расширение режима : CM (complete main)
    Параметр Endianness формата : Big
    Идентификатор кодека : A_AC3
    Продолжительность : 1 ч. 55 м.
    Вид битрейта : Постоянный
    Битрейт : 192 Кбит/сек
    Каналы : 2 канала
    Расположение каналов : Front: L R
    Частота : 48, 0 КГц
    Частота кадров : 31, 250 кадров/сек (1536 spf)
    Битовая глубина : 16 бит
    Метод сжатия : С потерями
    Размер потока : 158 Мбайт (1%)
    Заголовок : Rus DVO НТВ+
    Язык : Russian
    Default : Да
    Forced : Нет
    Аудио #2
    Идентификатор : 3
    Формат : DTS
    Формат/Информация : Digital Theater Systems
    Режим : 16
    Параметр Endianness формата : Big
    Идентификатор кодека : A_DTS
    Продолжительность : 1 ч. 55 м.
    Вид битрейта : Постоянный
    Битрейт : 1509 Кбит/сек
    Каналы : 6 каналов
    Расположение каналов : Front: L C R, Side: L R, LFE
    Частота : 48, 0 КГц
    Частота кадров : 93, 750 кадра/сек (512 spf)
    Битовая глубина : 24 бит
    Метод сжатия : С потерями
    Размер потока : 1, 21 Гбайт (8%)
    Заголовок : ENG DTS5.1 1.5M
    Язык : English
    Default : Нет
    Forced : Нет
    Текст
    Идентификатор : 4
    Формат : UTF-8
    Идентификатор кодека : S_TEXT/UTF8
    Идентификатор кодека/Информация : UTF-8 Plain Text
    Язык : English
    Default : Да
    Forced : Нет
    Меню
    00: 00: 00.000 : 00: 00: 00.000
    00: 04: 03.410 : 00: 04: 03.410
    00: 06: 42.944 : 00: 06: 42.944
    00: 08: 55.618 : 00: 08: 55.618
    00: 11: 52.170 : 00: 11: 52.170
    00: 19: 02.933 : 00: 19: 02.933
    00: 20: 19.009 : 00: 20: 19.009
    00: 21: 58.359 : 00: 21: 58.359
    00: 24: 13.786 : 00: 24: 13.786
    00: 26: 55.823 : 00: 26: 55.823
    00: 35: 19.909 : 00: 35: 19.909
    00: 37: 05.765 : 00: 37: 05.765
    00: 40: 35.558 : 00: 40: 35.558
    00: 42: 23.207 : 00: 42: 23.207
    00: 46: 43.801 : 00: 46: 43.801
    00: 51: 14.947 : 00: 51: 14.947
    00: 55: 06.303 : 00: 55: 06.303
    00: 56: 53.285 : 00: 56: 53.285
    01: 01: 17.465 : 01: 01: 17.465
    01: 03: 54.330 : 01: 03: 54.330
    01: 08: 21.139 : 01: 08: 21.139
    01: 12: 58.874 : 01: 12: 58.874
    01: 15: 31.402 : 01: 15: 31.402
    01: 22: 05.754 : 01: 22: 05.754
    01: 27: 00.882 : 01: 27: 00.882
    01: 29: 52.929 : 01: 29: 52.929
    01: 30: 53.198 : 01: 30: 53.198
    01: 33: 19.093 : 01: 33: 19.093
    01: 35: 57.251 : 01: 35: 57.251
    01: 39: 43.102 : 01: 39: 43.102
    01: 49: 47.831 : 01: 49: 47.831
    01: 50: 58.652 : 01: 50: 58.652


    Скриншоты для ознакомления




    Онлайн видео Команда из штата Индиана


    Прямая ссылка скачивания через uTorrent


    Команда из штата Индиана/Hoosiers (1986) BDRip [H.264/1080p]
    загрузка...
    Рейтинг →
     (голосов: 1, оценка 3/5, голосовать можно 1 раз )

    Другие торренты по теме:

  • Команда из штата Индиана / Ребята из Индианы / Hoosiers (1986) Blu-ray [H.264 / 1080p] [Custom]


    • Комментарии (0):

      Информация

      Информация

        Посетители, находящиеся в группе Гости, не могут оставлять комментарии в данной новости.

        ↓ Меню




        ↓ Опрос

        Вы добавили сайт в закладки?
        Да
        Нет


        Top 10 за месяц (Фильмы)