.
Авторизация | Регистрация
Хочешь лучшие торренты? Добавь свой email!
Добавить

Торрент скачать бесплатно

» » Восхождение пехотинца / Rise of the Footsoldier (2007) BDRip [Extended Version] торрент скачать бесплатно



    Восхождение пехотинца / Rise of the Footsoldier (2007) BDRip [Extended Version] торрент скачать бесплатно

    Опубликовал: Админ | Дата: 6-02-2017, 05:01 | Просмотров: 0

    Производство: Великобритания, Carnaby Films, Hanover Films
    Жанр: Боевик, Криминал, Драма
    Режиссер: Джулиан Джилби

    Актеры
    Риччи Харнетт, Терри Стоун, Крейг Фаирбрасс, Роланд Манукян, Фрэнк Харпер, Билли Мюррэй, Нил Мэскелл, Йен Вирго, Корали Роуз, Кирстон Вэрэйнг, Патрик Режис

    Описание

    Тяжелый фильм, изобилующий сценами насилия и обсценной лексикой в основе которого жизнь футбольного фаната Карлтона Лича, прошедшего весь сложный и жестокий путь от около-футбольного хулигана до полноценного английского мафиози. Всё начинается с футбола, когда болельщики Вест Хэма ездят по другим городам и вступают в уличные бои с фанатами других клубов. Выбивая зубы, раскраивая черепа, ломая руки, эти ребята попутно заняты поиском своего жизненного предназначения.

    Возраст: 18+ (зрителям, достигшим 18 лет. запрещено для детей)
    Рейтинг MPAA: NC-17 (лицам до 17 лет просмотр запрещен)
    Релиз от: ylnian
    Продолжительность: 02: 15: 21
    Качество видео: BDRip
    Перевод: Одноголосый закадровый
    Автор перевода: Антон Карповский
    Видео: Xvid, 720x384, ~1724 Kbps
    Аудио: AC3, 6 ch, 448 Kbps

    Общее
    Полное имя : E: Rise.of.the.Footsoldier.Extended.2007.BDRip-ylnian.avi
    Формат : AVI
    Формат/Информация : Audio Video Interleave
    Профиль формата : OpenDML
    Размер файла : 2, 06 Гбайт
    Продолжительность : 2 ч. 15 м.
    Общий поток : 2184 Кбит/сек
    Название фильма : Rise of the Footsoldier - Extended - 2007 - BDRip - ylnian
    Программа кодирования : VirtualDubMod 1.5.10.2 (build 2540/release)
    Библиотека кодирования : VirtualDubMod build 2540/release
    Видео
    Идентификатор : 0
    Формат : MPEG-4 Visual
    Профиль формата : Advanced Simple@L5
    Параметр BVOP формата : 1
    Параметр QPel формата : Нет
    Параметр GMC формата : Без точки перехода
    Параметр матрицы формата : Default (MPEG)
    Идентификатор кодека : XVID
    Идентификатор кодека/Подсказка : XviD
    Продолжительность : 2 ч. 15 м.
    Битрейт : 1724 Кбит/сек
    Ширина : 720 пикселей
    Высота : 384 пикселя
    Соотношение сторон : 1, 85: 1
    Частота кадров : 23, 976 (24000/1001) кадра/сек
    Цветовое пространство : YUV
    Субдискретизация насыщенности : 4: 2: 0
    Битовая глубина : 8 бит
    Тип развёртки : Прогрессивная
    Метод сжатия : С потерями
    Бит/(Пиксели*Кадры) : 0.260
    Размер потока : 1, 63 Гбайт (79%)
    Библиотека кодирования : XviD 67
    Аудио
    Идентификатор : 1
    Формат : AC-3
    Формат/Информация : Audio Coding 3
    Расширение режима : CM (complete main)
    Параметр Endianness формата : Big
    Идентификатор кодека : 2000
    Продолжительность : 2 ч. 15 м.
    Вид битрейта : Постоянный
    Битрейт : 448 Кбит/сек
    Каналы : 6 каналов
    Расположение каналов : Front: L C R, Side: L R, LFE
    Частота : 48, 0 КГц
    Частота кадров : 31, 250 кадров/сек (1536 spf)
    Битовая глубина : 16 бит
    Метод сжатия : С потерями
    Размер потока : 434 Мбайт (21%)
    Выравнивание : Разделение по промежуткам
    Продолжительность промежутка : 42 мс. (1, 00 видеокадр)
    Время предзагрузки промежутка : 500 мс.
    Заголовок : RUS - AVO - Karpovsky


    Скриншоты для ознакомления




    Онлайн видео Восхождение пехотинца


    Прямая ссылка скачивания через uTorrent


    Восхождение пехотинца/Rise of the Footsoldier (2007) BDRip [Extended Version]
    загрузка...
    Рейтинг →
     (голосов: 1, оценка 5/5, голосовать можно 1 раз )

    Другие торренты по теме:

  • Восхождение Пехотинца II / Rise of the Footsoldier Part II (2015) BDRip [H.264 / 1080p] [EN] скачать через торрент бесплатно
  • Восхождение Пехотинца II / Rise of the Footsoldier Part II (2015) BDRip [H.264 / 720p] [EN] скачать через торрент бесплатно
  • Восхождение Пехотинца II / Rise of the Footsoldier Part II (2015) BDRemux [H.264 / 1080p] [EN] скачать через торрент бесплатно
  • Восхождение пехотинца / Rise of the Footsoldier (2007) HDRip


    • Комментарии (0):

      Информация

      Информация

        Посетители, находящиеся в группе Гости, не могут оставлять комментарии в данной новости.

        ↓ Меню




        ↓ Опрос

        Вы добавили сайт в закладки?
        Да
        Нет


        Top 10 за месяц (Фильмы)