.
Авторизация | Регистрация
Хочешь лучшие торренты? Добавь свой email!
Добавить

Торрент скачать бесплатно

» » Девочки Гилмор: Времена года / Девочки Гилмор: Год из жизни / Gilmore Girls: A Year in the Life (2016) WEBRip (сезон 1, серии 1-3 из 4) NewStudio (обновляемая) торрент скачать бесплатно




    Девочки Гилмор: Времена года / Девочки Гилмор: Год из жизни / Gilmore Girls: A Year in the Life (2016) WEBRip (сезон 1, серии 1-3 из 4) NewStudio (обновляемая) торрент скачать бесплатно

    Опубликовал: Админ | Дата: 17-12-2016, 05:00 | Просмотров: 5

    Производство: США
    Жанр: драма, комедия
    Режиссер: Дэниэл Палладино, Эми Шерман-Палладино

    Актеры
    Лорен Грэм, Алексис Бледел, Мелисса МакКарти, Кейко Агена, Скотт Паттерсон, Яник Трусдэйл, Джаред Падалеки, Лайза Уайл, Майло Вентимилья, Шон Ганн, Крис Айгеман, Келли Бишоп, Эдвард Херрманн, Лиз Торрес и др.

    Описание

    Возрождение сериала о матери и дочери, живущих в провинции, где ничего толком и не происходит.

    Дата мировой премьеры: 25 ноября 2016
    Продолжительность: ~01: 30: 00 серия
    Качество видео: WEBRip
    Перевод: Многоголосый закадровый, профессиональный - NewStudio
    Реклама: присутствуют аудио вставки рекламы
    Видео: Xvid, 720х400 (16: 9), ~1310 Kbps
    Аудио Rus: MP3, 2 ch, 128Kbps

    General
    Complete name : E: Gilmore.Girls.A.Year.in.the.Life.S01.WEBRip.NewStudio.TVGilmore.Girls.A.Year.in.the.Life.s01e02.WEBRip.NewStudio.TV.avi
    Format : AVI
    Format/Info : Audio Video Interleave
    File size : 912 MiB
    Duration : 1h 28mn
    Overall bit rate : 1 448 Kbps
    Writing application : VirtualDubMod 1.5.10.2 (build 2540/release)
    Writing library : VirtualDub build 35491/release
    Video
    ID : 0
    Format : MPEG-4 Visual
    Format profile : Advanced Simple@L5
    Format settings, BVOP : 2
    Format settings, QPel : Yes
    Format settings, GMC : No warppoints
    Format settings, Matrix : Default (MPEG)
    Muxing mode : Packed bitstream
    Codec ID : XVID
    Codec ID/Hint : XviD
    Duration : 1h 28mn
    Bit rate : 1 310 Kbps
    Width : 720 pixels
    Height : 400 pixels
    Display aspect ratio : 16: 9
    Frame rate : 23.976 fps
    Color space : YUV
    Chroma subsampling : 4: 2: 0
    Bit depth : 8 bits
    Scan type : Progressive
    Compression mode : Lossy
    Bits/(Pixel*Frame) : 0.190
    Stream size : 826 MiB (91%)
    Writing library : XviD 73
    Audio
    ID : 1
    Format : MPEG Audio
    Format version : Version 1
    Format profile : Layer 3
    Mode : Joint stereo
    Mode extension : MS Stereo
    Codec ID : 55
    Codec ID/Hint : MP3
    Duration : 1h 28mn
    Bit rate mode : Constant
    Bit rate : 128 Kbps
    Channel(s) : 2 channels
    Sampling rate : 48.0 KHz
    Compression mode : Lossy
    Stream size : 80.7 MiB (9%)
    Alignment : Aligned on interleaves
    Interleave, duration : 42 ms (1.00 video frame)
    Interleave, preload duration : 504 ms


    Скриншоты для ознакомления




    Онлайн видео Девочки Гилмор: Времена года



    Девочки Гилмор: Времена года/Девочки Гилмор: Год из жизни/Gilmore Girls: A Year in the Life (2016) WEBRip (сезон 1, серии 1-3 из 4) NewStudio (обновляемая)
    загрузка...
    Рейтинг →
     (голосов: 1, оценка 5/5, голосовать можно 1 раз )

    Другие торренты по теме:

  • Девочки Гилмор / Gilmore Girls (2000-2007) WEB-DLRip (сезон 1-7, серии 1-153 из 153) Diva Universal


    • Комментарии (0):

      Информация

      Информация

        Посетители, находящиеся в группе Гости, не могут оставлять комментарии в данной новости.

        ↓ Меню




        ↓ Опрос

        Вы добавили сайт в закладки?
        Да
        Нет


        Top 10 за месяц (Фильмы)