.
Авторизация | Регистрация
Хочешь лучшие торренты? Добавь свой email!
Добавить

Торрент скачать бесплатно

» » Штрафбат (2004) DVDRip [H.264] (серии 1-11 из 11) торрент скачать бесплатно




    Штрафбат (2004) DVDRip [H.264] (серии 1-11 из 11) торрент скачать бесплатно

    Опубликовал: Админ | Дата: 1-12-2016, 04:01 | Просмотров: 26

    Производство: Россия, кинокомпания: МакДос при участии киностудии Эталон-фильм
    Жанр: Драма, Военный
    Режиссер: Николай Досталь

    Актеры
    Алексей Серебряков, Юрий Степанов, Роман Мадянов, Виктор Супрун, Алексей Жарков, Лев Борисов, Дмитрий Назаров, Илья Коврижных, Полина Кутепова, Александр Баширов и др.

    Описание

    Майор Василий Твердохлебов в самом начале войны попал в плен. Он, как и многие сослуживцы, отказался сотрудничать с врагом, за что и был приговорён к расстрелу. Но, получив ранение, сумел выжить, добрёл до своих и уже там был с пристрастием допрошен и обвинён в предательстве. Твердохлебова назначили командиром штрафного батальона, где был собран разношёрстный контингент, плохо идущий на контакт и во многом живущий по понятиям далёким от военной дисциплины.
    Вместе с вверенными бойцами комбату предстоит выполнять непростые приказы и отправляться в бой, понимая, что он может стать последним…

    Возраст: 16+ (зрителям, достигшим 16 лет)
    Продолжительность: ~00: 47: 00 серия
    Качество видео: DVDRip
    Вид субтитров: вшитые, отключаемые
    Язык субтитров: русский, английский
    Видео: AVC/H.264, 720x456, ~2050 kbps
    Аудио: AC3, 2 ch, 192.00 kbps

    Общее
    Уникальный идентификатор : 175315187897020876967472030886963982912 (0x83E47A1D2CCADF6A843DA29E8EBC3240)
    Полное имя : O: ШтрафбатШтрафбат 11 серийШтрафбат.2004. 1 серия.mkv
    Формат : Matroska
    Версия формата : Version 4/Version 2
    Размер файла : 762 Мбайт
    Продолжительность : 47 м.
    Общий поток : 2248 Кбит/сек
    Название фильма : Release for Topmost
    Дата кодирования : UTC 2016-11-22 06: 10: 37
    Программа кодирования : mkvmerge v6.2.0 (\'Promised Land\') built on Apr 28 2013 12: 22: 01
    Библиотека кодирования : libebml v1.3.0 + libmatroska v1.4.0
    Видео
    Идентификатор : 1
    Формат : AVC
    Формат/Информация : Advanced Video Codec
    Профиль формата : High@L4.1
    Параметр CABAC формата : Да
    Параметр ReFrames формата : 4 кадра
    Идентификатор кодека : V_MPEG4/ISO/AVC
    Продолжительность : 47 м.
    Битрейт : 2050 Кбит/сек
    Ширина : 720 пикселей
    Высота : 456 пикселей
    Соотношение сторон : 16: 10
    Режим частоты кадров : Постоянный
    Частота кадров : 23, 976 кадра/сек
    Цветовое пространство : YUV
    Субдискретизация насыщенности : 4: 2: 0
    Битовая глубина : 8 бит
    Тип развёртки : Прогрессивная
    Бит/(Пиксели*Кадры) : 0.260
    Размер потока : 682 Мбайт (89%)
    Заголовок : Штрафбат.2004. 1 серия (Release for Topmost)
    Библиотека кодирования : x264 core 130 r2273 b3065e6
    Настройки программы : cabac=1/ref=3/deblock=1: 0: 0/analyse=0x3: 0x113/me=hex/subme=7/psy=1/psy_rd=1.00: 0.15/mixed_ref=1/me_range=16/chroma_me=1/trellis=1/8x8dct=1/cqm=0/deadzone=21, 11/fast_pskip=1/chroma_qp_offset=-3/threads=12/lookahead_threads=2/sliced_threads=0/nr=0/decimate=0/interlaced=0/bluray_compat=0/constrained_intra=0/bframes=3/b_pyramid=2/b_adapt=1/b_bias=0/direct=3/weightb=1/open_gop=0/weightp=2/keyint=240/keyint_min=23/scenecut=40/intra_refresh=0/rc_lookahead=40/rc=2pass/mbtree=1/bitrate=2050/ratetol=1.0/qcomp=0.60/qpmin=0/qpmax=69/qpstep=4/cplxblur=20.0/qblur=0.5/ip_ratio=1.40/aq=1: 1.00
    Язык : Russian
    Default : Да
    Forced : Нет
    Аудио
    Идентификатор : 2
    Формат : AC-3
    Формат/Информация : Audio Coding 3
    Расширение режима : CM (complete main)
    Параметр Endianness формата : Big
    Идентификатор кодека : A_AC3
    Продолжительность : 47 м.
    Вид битрейта : Постоянный
    Битрейт : 192 Кбит/сек
    Каналы : 2 канала
    Расположение каналов : Front: L R
    Частота : 48, 0 КГц
    Битовая глубина : 16 бит
    Метод сжатия : С потерями
    Размер потока : 65, 1 Мбайт (9%)
    Заголовок : AC3, 2.0 (L, R) ch, 192.00 kbps
    Язык : Russian
    Default : Да
    Forced : Нет
    Текст #1
    Идентификатор : 3
    Формат : VobSub
    Режим смешивания : zlib
    Идентификатор кодека : S_VOBSUB
    Идентификатор кодека/Информация : The same subtitle format used on DVDs
    Язык : Russian
    Default : Да
    Forced : Нет
    Текст #2
    Идентификатор : 4
    Формат : VobSub
    Режим смешивания : zlib
    Идентификатор кодека : S_VOBSUB
    Идентификатор кодека/Информация : The same subtitle format used on DVDs
    Язык : English
    Default : Нет
    Forced : Нет


    Скриншоты для ознакомления




    Онлайн видео Штрафбат (2004) DVDRip [H.264] (серии 1



    Штрафбат (2004) DVDRip [H.264] (серии 1-11 из 11)
    загрузка...
    Рейтинг →
     (голосов: 1, оценка 3/5, голосовать можно 1 раз )

    Другие торренты по теме:

  • Штрафбат (2004) DVDRip


    • Комментарии (0):

      Информация

      Информация

        Посетители, находящиеся в группе Гости, не могут оставлять комментарии в данной новости.

        ↓ Меню




        ↓ Опрос

        Вы добавили сайт в закладки?
        Да
        Нет


        Top 10 за месяц (Фильмы)