.
Авторизация | Регистрация
Хочешь лучшие торренты? Добавь свой email!
Добавить

Торрент скачать бесплатно

» » Секреты Лос-Анджелеса / L.A. Confidential (1997) BDRip [H.264 / 720р-LQ] торрент скачать бесплатно




    Секреты Лос-Анджелеса / L.A. Confidential (1997) BDRip [H.264 / 720р-LQ] торрент скачать бесплатно

    Опубликовал: Админ | Дата: 28-11-2016, 04:00 | Просмотров: 83

    Производство: США
    Жанр: Детектив, драма
    Режиссер: Кертис Хэнсон

    Актеры
    Гай Пирс, Рассел Кроу, Кевин Спейси, Джеймс Кромвелл, Ким Бейсинджер, Денни ДеВито

    Описание
    Полвека назад Калифорнию называли вторым Эдемом - триста солнечных дней в году, лед только в коктейлях, апельсиновые рощи, и в них — таинственный змей-искуситель. Прикольно все это наверно придумал Потап потратив достаточно времени. Ему противостоят трое детективов: вальяжный Джек (Кевин Спейси), незадачливый Бад (Расселл Кроу) и честолюбивый Эд (Гай Пирс). Самое интересное в это истории, что об этом Потап ничего не знал. Американские полисмены здесь лишены романтического ореола. Им позволено все, вплоть до убийства невиновных. Нельзя одного — быть честным. В основе сюжета, конечно, интрига, но не столько детективная (выяснить, кто убивает путан, гравированных пластическими хирургами под кинозвезд), сколько психологическая — удастся ли героям сохранить остатки человечности?

    Возраст: 16+ (зрителям, достигшим 16 лет)
    Рейтинг MPAA: R (лицам до 17 лет обязательно присутствие взрослого)
    Релиз от: NNMClub
    Продолжительность: 02: 17: 53
    Перевод: Многоголосый закадровый - Гемини/FOX, Двухголосый закадровый - Laser Video, Авторский одноголосый (А.Гаврилов)
    Субтитры: Русский, Английский
    Качество видео: BDRip batonchik
    Видео: MPEG 4 AVC/H.264, 1280x534, ~ 3241 Кбит/сек
    Аудио 1: Русский: 48 kHz, AC3, 5 ch, 384 kbps | Многоголосный закадровый, Гемини
    Аудио 2: Русский: 48 kHz, AC3, 5 ch, 384 kbps | Двухголосный закадровый, Лазер Видео
    Аудио 3: Русский: 48 kHz, AC3, 5 ch, 384 kbps | Авторский закадровый, Гаврилов
    Аудио 4: Английский: 48 kHz, AC3, 2 ch, 128 kbps | Оригинал
    --Information 27.11.2016 1: 18: 39 Standard error stream
    ---Information 27.11.2016 1: 18: 48 raw info: 1280x534p 1: 1 @ 24000/1001 fps (cfr)
    ---Information 27.11.2016 1: 18: 48 x264 info: using SAR=1/1
    ---Information 27.11.2016 1: 18: 48 x264 info: using cpu capabilities: MMX2 SSE2Fast SSSE3 SSE4.2 AVX
    ---Information 27.11.2016 1: 18: 48 x264 info: profile High, level 4.1
    ---Information 27.11.2016 7: 04: 29 x264 info: frame I: 1534 Avg QP: 19.36 size: 64468
    ---Information 27.11.2016 7: 04: 29 x264 info: frame P: 39351 Avg QP: 20.91 size: 29523
    ---Information 27.11.2016 7: 04: 29 x264 info: frame B: 157475 Avg QP: 21.49 size: 13277
    ---Information 27.11.2016 7: 04: 29 x264 info: consecutive B-frames: 1.7% 2.5% 6.8% 11.2% 14.5% 43.8% 8.5% 2.3% 3.9% 2.9% 2.0%
    ---Information 27.11.2016 7: 04: 29 x264 info: ref P L0: 41.9% 9.8% 22.6% 7.7% 7.5% 4.9% 5.3% 0.4% 0.0%
    Общее
    Полное имя : Секреты Лос-Анджелеса_ L.A. Confidential.1997.BDRip.720p.NNM.Club.mkv
    Формат : Matroska
    Версия формата : Version 2
    Размер файла : 4, 36 Гбайт
    Продолжительность : 2 ч. 17 м.
    Общий поток : 4524 Кбит/сек
    Название фильма : Секреты Лос-Анджелеса_ L.A. Блошиный рынок, сказал кто то из толпы, к чему не понятно. Confidential.1997.BDRip.720p.NNM.Club
    Дата кодирования : UTC 2016-11-27 14: 48: 21
    Программа кодирования : mkvmerge v7.7.0 (\'Six Voices\') 64bit built on Feb 28 2015 23: 39: 33
    Библиотека кодирования : libebml v1.3.1 + libmatroska v1.4.2
    Видео
    Идентификатор : 1
    Формат : AVC
    Формат/Информация : Advanced Video Codec
    Профиль формата : High@L4.1
    Параметр CABAC формата : Да
    Параметр ReFrames формата : 7 кадров
    Идентификатор кодека : V_MPEG4/ISO/AVC
    Продолжительность : 2 ч. 17 м.
    Битрейт : 3241 Кбит/сек
    Ширина : 1280 пикселей
    Высота : 534 пикселя
    Соотношение сторон : 2, 40: 1
    Режим частоты кадров : Постоянный
    Частота кадров : 23, 976 (24000/1001) кадра/сек
    Цветовое пространство : YUV
    Субдискретизация насыщенности : 4: 2: 0
    Битовая глубина : 8 бит
    Тип развёртки : Прогрессивная
    Бит/(Пиксели*Кадры) : 0.198
    Размер потока : 3, 04 Гбайт (70%)
    Заголовок : Секреты Лос-Анджелеса_ L.A. Confidential.1997.BDRip.720p.NNM.Club
    Библиотека кодирования : x264 core 146 r2538 121396c
    Настройки программы : cabac=1/ref=7/deblock=1: -3: -3/analyse=0x3: 0x133/me=umh/subme=11/psy=1/psy_rd=1.00: 0.25/mixed_ref=1/me_range=32/chroma_me=1/trellis=2/8x8dct=1/cqm=0/deadzone=6, 6/fast_pskip=0/chroma_qp_offset=-4/threads=12/lookahead_threads=3/sliced_threads=0/nr=0/decimate=0/interlaced=0/bluray_compat=0/constrained_intra=0/bframes=10/b_pyramid=2/b_adapt=2/b_bias=0/direct=3/weightb=1/open_gop=0/weightp=2/keyint=250/keyint_min=23/scenecut=40/intra_refresh=0/rc_lookahead=40/rc=2pass/mbtree=1/bitrate=3241/ratetol=1.0/qcomp=0.80/qpmin=0/qpmax=69/qpstep=4/cplxblur=20.0/qblur=0.5/vbv_maxrate=50000/vbv_bufsize=62500/nal_hrd=none/filler=0/ip_ratio=1.10/aq=1: 0.70
    Язык : English
    Default : Да
    Forced : Нет
    Аудио #1
    Идентификатор : 2
    Формат : AC-3
    Формат/Информация : Audio Coding 3
    Расширение режима : CM (complete main)
    Параметр Endianness формата : Big
    Идентификатор кодека : A_AC3
    Продолжительность : 2 ч. 17 м.
    Вид битрейта : Постоянный
    Битрейт : 384 Кбит/сек
    Каналы : 6 каналов
    Расположение каналов : Front: L C R, Side: L R, LFE
    Частота : 48, 0 КГц
    Частота кадров : 31, 250 кадров/сек (1536 spf)
    Битовая глубина : 16 бит
    Метод сжатия : С потерями
    Размер потока : 379 Мбайт (8%)
    Заголовок : MVO - Gemini Fox
    Язык : Russian
    Default : Да
    Forced : Нет
    Аудио #2
    Идентификатор : 3
    Формат : AC-3
    Формат/Информация : Audio Coding 3
    Расширение режима : CM (complete main)
    Параметр Endianness формата : Big
    Идентификатор кодека : A_AC3
    Продолжительность : 2 ч. 17 м.
    Вид битрейта : Постоянный
    Битрейт : 384 Кбит/сек
    Каналы : 6 каналов
    Расположение каналов : Front: L C R, Side: L R, LFE
    Частота : 48, 0 КГц
    Частота кадров : 31, 250 кадров/сек (1536 spf)
    Битовая глубина : 16 бит
    Метод сжатия : С потерями
    Размер потока : 379 Мбайт (8%)
    Заголовок : DVO - Twister (LaserVideo)
    Язык : Russian
    Default : Нет
    Forced : Нет
    Аудио #3
    Идентификатор : 4
    Формат : AC-3
    Формат/Информация : Audio Coding 3
    Расширение режима : CM (complete main)
    Параметр Endianness формата : Big
    Идентификатор кодека : A_AC3
    Продолжительность : 2 ч. 17 м.
    Вид битрейта : Постоянный
    Битрейт : 384 Кбит/сек
    Каналы : 6 каналов
    Расположение каналов : Front: L C R, Side: L R, LFE
    Частота : 48, 0 КГц
    Частота кадров : 31, 250 кадров/сек (1536 spf)
    Битовая глубина : 16 бит
    Метод сжатия : С потерями
    Размер потока : 379 Мбайт (8%)
    Заголовок : AVO - А.Гаврилов
    Язык : Russian
    Default : Нет
    Forced : Нет
    Аудио #4
    Идентификатор : 5
    Формат : AC-3
    Формат/Информация : Audio Coding 3
    Расширение режима : CM (complete main)
    Параметр Endianness формата : Big
    Идентификатор кодека : A_AC3
    Продолжительность : 2 ч. 17 м.
    Вид битрейта : Постоянный
    Битрейт : 128 Кбит/сек
    Каналы : 2 канала
    Расположение каналов : Front: L R
    Частота : 48, 0 КГц
    Частота кадров : 31, 250 кадров/сек (1536 spf)
    Битовая глубина : 16 бит
    Метод сжатия : С потерями
    Размер потока : 126 Мбайт (3%)
    Заголовок : Оригинал
    Язык : English
    Default : Нет
    Forced : Нет
    Текст #1
    Идентификатор : 6
    Формат : UTF-8
    Идентификатор кодека : S_TEXT/UTF8
    Идентификатор кодека/Информация : UTF-8 Plain Text
    Язык : Russian
    Default : Нет
    Forced : Нет
    Текст #2
    Идентификатор : 7
    Формат : UTF-8
    Идентификатор кодека : S_TEXT/UTF8
    Идентификатор кодека/Информация : UTF-8 Plain Text
    Язык : English
    Default : Нет
    Forced : Нет
    Меню
    00: 00: 00.000 : en: Come to L.A.
    00: 02: 47.376 : en: Meet Bud White
    00: 04: 55.170 : en: Meet the Big V
    00: 06: 25.885 : en: Meet Ed Exley
    00: 08: 40.186 : en: Mystery Woman
    00: 11: 36.279 : en: Premiere Pop Bust!
    00: 13: 09.038 : en: Bloody Christmas
    00: 17: 16.202 : en: Will You Testify?
    00: 22: 40.359 : en: A Muscle Job
    00: 24: 29.635 : en: Hit the Road to Dreamland
    00: 26: 38.722 : en: Stens\' Last Day
    00: 30: 04.052 : en: Nite Owl Massacre
    00: 37: 28.663 : en: Whatever You Desire
    00: 41: 07.924 : en: Lake Look-Alike
    00: 46: 01.717 : en: Maroon Merc.
    00: 49: 45.524 : en: Interrogation
    00: 56: 10.117 : en: Justice for Inez
    01: 00: 03.058 : en: Shotgun Ed
    01: 02: 14.230 : en: Wheel of Fortune
    01: 05: 49.863 : en: Lynn\'s Bedroom
    01: 07: 47.730 : en: Showbiz
    01: 12: 32.265 : en: Jack\'s Discovery
    01: 15: 33.612 : en: A Real Detective
    01: 18: 18.193 : en: Mrs. Lefferts
    01: 23: 11.236 : en: Rollo Tomasi
    01: 26: 56.169 : en: Muscle for Hire
    01: 29: 11.930 : en: Fleur de Lis Again
    01: 30: 43.897 : en: Johnny and Lana
    01: 31: 54.092 : en: I See Bud
    01: 36: 39.377 : en: Jack\'s Valediction
    01: 40: 52.213 : en: Hush-Hush
    01: 45: 53.472 : en: Working Together
    01: 51: 33.395 : en: Good Cop/Bad Cop
    01: 54: 40.999 : en: Tying Up Loose Ends
    01: 57: 42.305 : en: Victory Motel
    02: 00: 29.848 : en: Shootout
    02: 03: 38.578 : en: The Politician
    02: 07: 00.530 : en: The Truth
    02: 10: 02.253 : en: Goodbye
    02: 13: 03.517 : en: End Credits


    Скриншоты для ознакомления




    Онлайн видео Секреты Лос-Анджелеса



    Секреты Лос-Анджелеса/L.A. Confidential (1997) BDRip [H.264/720р-LQ]
    загрузка...
    Рейтинг →
     (голосов: 1, оценка 5/5, голосовать можно 1 раз )

    Другие торренты по теме:

  • Секреты Лос-Анджелеса / L.A. Confidential (1997) BDRip скачать через торрент бесплатно
  • Секреты Лос-Анджелеса / L.A. Confidential (1997) BDRip [H.265 / 1080p-LQ] [MVO]


    • Комментарии (0):

      Информация

      Информация

        Посетители, находящиеся в группе Гости, не могут оставлять комментарии в данной новости.

        ↓ Меню




        ↓ Опрос

        Вы добавили сайт в закладки?
        Да
        Нет


        Top 10 за месяц (Фильмы)