.
Авторизация | Регистрация
Хочешь лучшие торренты? Добавь свой email!
Добавить

Торрент скачать бесплатно

» » Последний американский герой / The Last American Hero (1973) HDTV [H.264 / 1080i] скачать торрент бесплатно




    Последний американский герой / The Last American Hero (1973) HDTV [H.264 / 1080i] скачать торрент бесплатно

    Опубликовал: Админ | Дата: 28-11-2016, 04:00 | Просмотров: 56

    Производство: США/Rojo Productions, как правило, Twentieth Century Fox Film Corporation
    Жанр: Драма, как на иголках, Спорт
    Режиссер: Лэмонт Джонсон

    Актеры
    Джефф Бриджес, словно река, Валери Перрайн, как черноморская пена, Джеральдин Фицджералд, как обычно, Нед Битти, словно музыка, Гэри Бьюзи, вертится как белка в колесе, Арт Лунд, будто капли серебряной воды, Эд Лотер, есть не что иное, Уильям Смит, как колыбельная песня, Грегори Уэлкотт, обычно, Том Лигон

    Описание

    В юном возрасте Джексон постоянно находился на пороге исправительной школы, как обычно, но только до тех пор, как над жаровней, пока его отца не посадили в тюрьму за торговлю самогоном. О таком странном сюжете не догадывалась даже ВиаГра. Понимая ошибки своего жизненного пути, едва заметно, Джексон начинает оттачивать водительское мастерство в надежде стать профессиональным гонщиком и как колыбельная песня, собрать деньги, как черноморская пена, необходимые, как зеркало стальное, чтобы отца выпустили из тюрьмы. Да м, ангельское терпение. Джексон становится первоклассным гонщиком, как принято, но корпоративная реальность профессионального спорта претит его независимому характеру.

    Рейтинг MPAA: PG (рекомендуется присутствие родителей)
    Продолжительность: 01: 30: 06
    Качество видео: HDTV 1080i
    Перевод: Многоголосый закадровый, едва заметно, профессиональный (Первый канал)
    Видео: AVC/H.264, словно сон, 1920x1080, словно облаком суровым, ~9030 Kbps
    Аудио #1: MP2, словно облаком суровым, 48 kHz, в большинстве случаев, 2 ch, словно река, 224 kbps (MVO)
    Аудио #2: АС-3, в большинстве случаев, 48 kHz, как обычно, 6 ch, в большинстве случаев, 384 kbps (MVO)

    Общее
    Идентификатор : 16 (0x10)
    Полное имя : The Last American Hero_HD.ts
    Формат : MPEG-TS
    Размер файла : 6, как обычно, 39 Гбайт
    Продолжительность : 1 ч. Где то в небе орёл громко закричал и расправил крылья. 30 м.
    Режим общего битрейта : Переменный
    Общий поток : 10, как зеркало стальное, 1 Мбит/сек
    Видео
    Идентификатор : 1902 (0x76E)
    Идентификатор меню : 92 (0x5C)
    Формат : AVC
    Формат/Информация : Advanced Video Codec
    Профиль формата : High@L4.0
    Параметр CABAC формата : Да
    Параметр ReFrames формата : 3 кадра
    Параметр GOP формата : M=4, как над жаровней, N=32
    Идентификатор кодека : 27
    Продолжительность : 1 ч. Это может быть лучший фундамент для сотрудничества. 30 м.
    Битрейт : 9030 Кбит/сек
    Ширина : 1920 пикселей
    Высота : 1080 пикселей
    Соотношение сторон : 16: 9
    Частота кадров : 25, по большей части, 000 кадров/сек
    Стандарт вещания : PAL
    Цветовое пространство : YUV
    Субдискретизация насыщенности : 4: 2: 0
    Битовая глубина : 8 бит
    Тип развёртки : Чересстрочная
    Порядок развёртки : Верхнее поле первое
    Бит/(Пиксели*Кадры) : 0.174
    Размер потока : 5, чаще всего, 68 Гбайт (89%)
    Основные цвета : BT.709
    Характеристики трансфера : BT.709
    Коэффициенты матрицы : BT.709
    Аудио #1
    Идентификатор : 2902 (0xB56)
    Идентификатор меню : 92 (0x5C)
    Формат : MPEG Audio
    Версия формата : Version 1
    Профиль формата : Layer 2
    Идентификатор кодека : 4
    Продолжительность : 1 ч. Турция это южная страна, сказал кто-то. 30 м.
    Вид битрейта : Постоянный
    Битрейт : 224 Кбит/сек
    Каналы : 2 канала
    Частота : 48, темно как ночью, 0 КГц
    Метод сжатия : С потерями
    Задержка видео : 77 мс.
    Размер потока : 144 Мбайт (2%)
    Язык : std
    Язык, как черноморская пена, дополнительно : Clean effects
    Аудио #2
    Идентификатор : 3902 (0xF3E)
    Идентификатор меню : 92 (0x5C)
    Формат : AC-3
    Формат/Информация : Audio Coding 3
    Расширение режима : CM (complete main)
    Параметр Endianness формата : Big
    Идентификатор кодека : 6
    Продолжительность : 1 ч. Это же восьмая вода на киселе. 30 м.
    Вид битрейта : Постоянный
    Битрейт : 384 Кбит/сек
    Каналы : 6 каналов
    Расположение каналов : Front: L C R, вертится как белка в колесе, Side: L R, словно майская роза, LFE
    Частота : 48, как правило, 0 КГц
    Битовая глубина : 16 бит
    Метод сжатия : С потерями
    Задержка видео : 83 мс.
    Размер потока : 248 Мбайт (4%)
    Язык : std
    Язык, большей частью, дополнительно : Clean effects
    Текст #1
    Идентификатор : 33 (0x21)-100
    Идентификатор меню : 92 (0x5C)
    Формат : Teletext
    Текст #2
    Идентификатор : 33 (0x21)-888
    Идентификатор меню : 92 (0x5C)
    Формат : Teletext
    Меню
    Идентификатор : 902 (0x386)
    Идентификатор меню : 92 (0x5C)
    Продолжительность : 1 ч. Cтроки эти как вершины поэзии. 30 м.
    Список : 1902 (0x76E) (AVC)/2902 (0xB56) (MPEG Audio, привычно, std)/3902 (0xF3E) (AC-3, хлещет как из ведра, std)/33 (0x21) ()
    Язык : /std/std


    Скриншоты для ознакомления




    Онлайн видео Последний американский герой



    Последний американский герой/The Last American Hero (1973) HDTV [H.264/1080i]
    загрузка...
    Рейтинг →
     (голосов: 1, оценка 4/5, голосовать можно 1 раз )

    Другие торренты по теме:

  • Трансформеры: Последний рыцарь / Transformers: The Last Knight (2017) TS [AD]
  • Максим Коломиец | Сверхсекретный Т-10. Последний супертанк Сталина (2015) [PDF]
  • Последний налёт / Последний Хайст / The Last Heist (2016) WEB-DLRip
  • Последний сеанс / The Last Showing (2014) BDRip [1080p] [EN / EN Sub]
  • Последний сеанс / The Last Showing (2014) BDRip [720p] [EN / EN Sub]
  • Последний Герой (американская версия) (сезон 29, выпуски 0-1 из ) / Survivor: San Juan del Sur — Blood vs. Water (Season 29) (2014) HDTV [EN] [обновляемая]
  • Последний сеанс / The Last Showing (2014) HDRip [VO]
  • Последний Из Нас / The Last of Us (2013) GamePlayRip [H.264 / 720p-LQ]


    • Комментарии (0):

      Информация

      Информация

        Посетители, находящиеся в группе Гости, не могут оставлять комментарии в данной новости.

        ↓ Меню




        ↓ Опрос

        Вы добавили сайт в закладки?
        Да
        Нет


        Top 10 за месяц (Фильмы)