.
Авторизация | Регистрация
Хочешь лучшие торренты? Добавь свой email!
Добавить

Торрент скачать бесплатно

» » Иван Бровкин на целине (1959) DVD5 торрент скачать бесплатно




    Иван Бровкин на целине (1959) DVD5 торрент скачать бесплатно

    Опубликовал: Админ | Дата: 28-11-2016, 04:00 | Просмотров: 62

    Производство: СССР, Киностудия им. М. Горького
    Жанр: Комедия
    Режиссер: Иван Лукинский

    Актеры
    Леонид Харитонов, Дая Смирнова, Сергей Блинников, Евгений Шутов, Михаил Пуговкин, Татьяна Пельтцер, Вера Орлова Анна Коломийцева Василий Минин Марина Гаврилко

    Описание

    Продолжение фильма Солдат Иван Бровкин. После демобилизации Иван Бровкин гостил дома недолго. Вместе со своими друзьями он решил поехать на целину. А Любаша, не согласившись ехать в далекую землю, снова осталась ждать своего Ивана, который вместе со всеми преодолевал трудности, а вскоре стал бригадиром трактористов, ударником труда.

    Возраст: 6+ (зрителям, достигшим 6 лет)
    Релиз от: smithland
    Продолжительность: 01: 30: 45
    Качество видео: DVD5
    Видео: MPEG-2, 720x576@768x576, ~6075 Kbps
    Аудио: AC3, 2 ch, 192, CBR

    General
    Complete name : Иван Бровкин на целине
    Format : MPEG-PS
    File size : 4.05 GiB
    Duration : 1h 30mn
    Overall bit rate mode : Variable
    Overall bit rate : 6 395 Kbps
    Video
    ID : 224 (0xE0)
    Format : MPEG Video
    Format version : Version 2
    Format profile : Main@Main
    Format settings, BVOP : Yes
    Format settings, Matrix : Default
    Format settings, GOP : M=3, N=12
    Duration : 1h 30mn
    Bit rate mode : Variable
    Bit rate : 6 075 Kbps
    Maximum bit rate : 9 200 Kbps
    Width : 720 pixels
    Height : 576 pixels
    Display aspect ratio : 4: 3
    Frame rate : 25.000 fps
    Standard : Component
    Color space : YUV
    Chroma subsampling : 4: 2: 0
    Bit depth : 8 bits
    Scan type : Progressive
    Compression mode : Lossy
    Bits/(Pixel*Frame) : 0.586
    Time code of first frame : 00: 00: 00: 00
    Time code source : Group of pictures t_head
    GOP, Open/Closed : Closed
    Stream size : 3.85 GiB (95%)
    Color primaries : BT.601 PAL
    Transfer characteristics : BT.470 System B, BT.470 System G
    Matrix coefficients : BT.601
    Audio
    ID : 189 (0xBD)-128 (0x80)
    Format : AC-3
    Format/Info : Audio Coding 3
    Mode extension : CM (complete main)
    Format settings, Endianness : Big
    Muxing mode : DVD-Video
    Duration : 1h 30mn
    Bit rate mode : Constant
    Bit rate : 192 Kbps
    Channel(s) : 2 channels
    Channel positions : Front: L R
    Sampling rate : 48.0 KHz
    Compression mode : Lossy
    Stream size : 125 MiB (3%)


    Скриншоты для ознакомления




    Онлайн видео Успех (1984) HDTV [H.264



    Иван Бровкин на целине (1959) DVD5
    загрузка...
    Рейтинг →
     (голосов: 1, оценка 4/5, голосовать можно 1 раз )

    Другие торренты по теме:

  • Солдат Иван Бровкин (1955) HDTV [H.264 / 1080i]
  • Иван Бровкин на целине (1959) HDTV [H.264 / 1080i]


    • Комментарии (0):

      Информация

      Информация

        Посетители, находящиеся в группе Гости, не могут оставлять комментарии в данной новости.

        ↓ Меню




        ↓ Опрос

        Вы добавили сайт в закладки?
        Да
        Нет


        Top 10 за месяц (Фильмы)