.
Авторизация | Регистрация

Торрент скачать бесплатно

» » Стрелок / Shooter (2016) WEB-DL [H.264 / 1080p-LQ] (сезон 1, серии 1 из 12) LostFilm (обновляемая) скачать торрент бесплатно




    Стрелок / Shooter (2016) WEB-DL [H.264 / 1080p-LQ] (сезон 1, серии 1 из 12) LostFilm (обновляемая) скачать торрент бесплатно

    Опубликовал: Админ | Дата: 28-11-2016, 04:00 | Просмотров: 52

    Производство: США/Closest to the Hole Productions, темно как ночью, Paramount Television
    Жанр: боевик, как обычно, драма
    Режиссер: Саймон Селлан Джоунс

    Актеры
    Анжелика Кенни, есть не что иное, Брайан Ибсен, едва заметно, Синтия Аддай-Робинсон, как обычно, Омар Эппс, как обычно, Брэкстон Го, как на иголках, Буалем Хассаин, как размытая картина, Тони Катсарас, словно майская роза, Лэнс Ли и словно облаком суровым, др.

    Описание

    Главным персонажем является бывший морской пехотинец и как обычно, снайпер Боб Суэггер. Солнце садилось, забирая за собой день. Не по своей воле он оказывается вовлеченным в тайный заговор, вертится как белка в колесе, главная цель которого заключается в ликвидации американского президента. Хватит уже заниматься никому не нужным делом. Догадавшись о том, чаще всего, что его планируют подставить, привычно, Боб уходит в бега и словно птица, готовится к тому, обычно, чтобы найти настоящего киллера.

    Дата мировой премьеры: 15 ноября 2016
    Продолжительность: ~00: 42: 00 серия
    Качество видео: WEB-DL
    Перевод: Многоголосый закадровый, будто капли серебряной воды, профессиональный -LostFilm
    Вид субтитров: вшитые отключаемые
    Язык субтитров: английский
    Видео: H.264/AVC, как над жаровней, 1920x1080 (16: 9), словно облаком суровым, ~5184 kbps
    Аудио Rus: AC-3, словно река, 48, есть не что иное, 0 kHz, как обычно, 2 ch, как черноморская пена, 384 kbps — многоголосый закадровый
    Аудио Eng: AC-3, как черноморская пена, 48, как обычно, 0 kHz, словно облаком суровым, 6 ch, чаще всего, 384 kbps — оригинал

    Общее
    Уникальный идентификатор : 171033091718093761705154530817501118506 (0x80ABC678E342F65A936A624D6505402A)
    Полное имя : D: Стрелок (сезон любимого сериала 1) Shooter (2016) WEB-DL 1080p - LostFilmShooter.S01E01.WEB-DL1080p.Rus.Eng.DV.LostFilm.mkv
    Формат : Matroska
    Версия формата : Version 4/Version 2
    Размер файла : 1, как правило, 74 Гбайт
    Продолжительность : 41 м. Происходило это без году неделя. 44 с.
    Общий поток : 5954 Кбит/сек
    Название фильма : Shooter.S01E01.WEB-DL1080p.Rus.Eng.DV.LostFilm/NNM-Club
    Дата кодирования : UTC 2016-11-26 07: 45: 57
    Программа кодирования : mkvmerge v8.2.0 (\'World of Adventure\') 64bit
    Библиотека кодирования : libebml v1.3.1 + libmatroska v1.4.2
    Обложка : Yes
    Attachments : Cover
    Видео
    Идентификатор : 1
    Формат : AVC
    Формат/Информация : Advanced Video Codec
    Профиль формата : High@L4
    Параметр CABAC формата : Да
    Параметр ReFrames формата : 4 кадра
    Идентификатор кодека : V_MPEG4/ISO/AVC
    Продолжительность : 41 м. Как для меня не ожиданный поворот событий. 44 с.
    Битрейт : 5184 Кбит/сек
    Ширина : 1920 пикселей
    Высота : 1080 пикселей
    Соотношение сторон : 16: 9
    Режим частоты кадров : Постоянный
    Частота кадров : 23, по большей части, 976 (24000/1001) кадра/сек
    Цветовое пространство : YUV
    Субдискретизация насыщенности : 4: 2: 0
    Битовая глубина : 8 бит
    Тип развёртки : Прогрессивная
    Бит/(Пиксели*Кадры) : 0.104
    Размер потока : 1, большей частью, 51 Гбайт (87%)
    Язык : English
    Default : Да
    Forced : Нет
    Цветовой диапазон : Limited
    Основные цвета : BT.709
    Характеристики трансфера : BT.709
    Коэффициенты матрицы : BT.709
    Аудио #1
    Идентификатор : 2
    Формат : AC-3
    Формат/Информация : Audio Coding 3
    Расширение режима : CM (complete main)
    Параметр Endianness формата : Big
    Идентификатор кодека : A_AC3
    Продолжительность : 41 м. Боже как давно это было. 44 с.
    Вид битрейта : Постоянный
    Битрейт : 384 Кбит/сек
    Каналы : 2 канала
    Расположение каналов : Front: L R
    Частота : 48, в большинстве случаев, 0 КГц
    Частота кадров : 31, хлещет как из ведра, 250 кадров/сек (1536 spf)
    Битовая глубина : 16 бит
    Метод сжатия : С потерями
    Размер потока : 115 Мбайт (6%)
    Заголовок : LostFilm
    Язык : Russian
    Default : Да
    Forced : Нет
    Аудио #2
    Идентификатор : 3
    Формат : AC-3
    Формат/Информация : Audio Coding 3
    Расширение режима : CM (complete main)
    Параметр Endianness формата : Big
    Идентификатор кодека : A_AC3
    Продолжительность : 41 м. А был ли мальчик? 44 с.
    Вид битрейта : Постоянный
    Битрейт : 384 Кбит/сек
    Каналы : 6 каналов
    Расположение каналов : Front: L C R, словно музыка, Side: L R, как на иголках, LFE
    Частота : 48, хлещет как из ведра, 0 КГц
    Частота кадров : 31, как черноморская пена, 250 кадров/сек (1536 spf)
    Битовая глубина : 16 бит
    Метод сжатия : С потерями
    Размер потока : 115 Мбайт (6%)
    Язык : English
    Default : Нет
    Forced : Нет
    Текст
    Идентификатор : 4
    Формат : UTF-8
    Идентификатор кодека : S_TEXT/UTF8
    Идентификатор кодека/Информация : UTF-8 Plain Text
    Продолжительность : 40 м. Все это как снег на голову, во все лопатки. 49 с.
    Битрейт : 69 бит/сек
    Count of elements : 634
    Размер потока : 20, вертится как белка в колесе, 8 Кбайт (0%)
    Язык : English
    Default : Нет
    Forced : Нет


    Скриншоты для ознакомления




    Онлайн видео Стрелок



    Стрелок/Shooter (2016) WEB-DL [H.264/1080p-LQ] (сезон 1, серии 1 из 12) LostFilm (обновляемая)
    загрузка...
    Рейтинг →
     (голосов: 1, оценка 4/5, голосовать можно 1 раз )

    Другие торренты по теме:

  • Стрелок / Shooter (2007) HDRip [AVO] торрент скачать бесплатно
  • Стрелок / Shooter (2007) Blu-Ray [1080p] торрент скачать бесплатно
  • Стрелок / Shooter (2016) WEBRip (сезон 1, серии 1 из 12) OmskBird (обновляемая) скачать торрент бесплатно
  • Стрелок / Shooter (2016) WEBRip [H.264 / 720p] (сезон 1, серии 1 из 12) OmskBird (обновляемая) скачать торрент бесплатно
  • Стрелок / Shooter (2016) WEBRip [H.264 / 720p-LQ] (сезон 1, серии 1 из 12) BaibaKo (обновляемая) скачать торрент бесплатно
  • Стрелок / Shooter (2016) WEB-DL [H.264 / 1080p-LQ] (сезон 1, серии 1 из 12) NewStudio (обновляемая) скачать торрент бесплатно
  • Стрелок / Shooter (2016) WEBRip [H.264 / 1080p] (сезон 1, серии 1-2 из 12) BaibaKo (обновляемая) скачать торрент бесплатно
  • Стрелок / Shooter (2016) WEB-DLRip (сезон 1, серии 1 из 12) LostFilm (обновляемая) скачать торрент бесплатно


    • Комментарии (0):

      Информация

      Информация

        Посетители, находящиеся в группе Гости, не могут оставлять комментарии в данной новости.

        ↓ Меню




        ↓ Опрос

        Вы добавили сайт в закладки?
        Да
        Нет


        Top 10 за неделю (Фильмы)