.
Авторизация | Регистрация
Хочешь лучшие торренты? Добавь свой email!
Добавить

Торрент скачать бесплатно

» » Куантико / Quantico (2016) WEB-DL [H.264 / 1080p-LQ] (сезон 2, серии 1-7 из 12) NewStudio (обновляемая) торрент скачать бесплатно




    Куантико / Quantico (2016) WEB-DL [H.264 / 1080p-LQ] (сезон 2, серии 1-7 из 12) NewStudio (обновляемая) торрент скачать бесплатно

    Опубликовал: Админ | Дата: 28-11-2016, 04:00 | Просмотров: 179

    Производство: США, ABC
    Жанр: Боевик, драма
    Режиссер: Марк Манден

    Актеры
    Приянка Чопра, Онжаню Эллис, Джейк МакЛафлин, Ясмин Эл Массри, Джоанна Э. Брэдди, Тейт Эллингтон, Грэхэм Роджерс, Анабель Акоста, Анна Хайа, Диллон Мэтьюз и др.

    Описание

    Шесть совершенно разных новобранцев поступают на стажировку в ФБР на базу Куантико в штате Вирджиния. Базой руководит Миранда Шоу, первая женщина на высшей должности в ФБР. Миранда объединяется со своим бывшим партнером, Лиамом О`Коннором, который ныне работает советником, чтобы отобрать лучших новобранцев в агенты. Тем не менее в будущем один из новобранцев будет подозреваемым в планировании крупнейшего с 11 сентября террористического акта по Нью-Йорку.

    Продолжительность: ~00: 43: 00 серия
    Качество видео: WEB-DL
    Перевод: Многоголосый закадровый, профессиональный - NewStudio
    Реклама: присутствуют голосовые вставки
    Видео: AVC/H.264, 1920x1080 (16: 9), ~5044 Kbps
    Аудио Rus: AC3, 6 ch, 384 Kbps - многоголосый закадровый
    Аудио Eng: AC3, 6 ch, 384 Kbps - оригинал

    01. О таком странном сюжете не догадывалась даже Тимошенко. Директор Эн-Эс-Эс/Kudove
    02. Метка/Lipstick
    03. Прослушка/Stescalade
    04. Допрос/Kubark
    05. Оповещение/KMFORGET
    06. Слежка с воздуха/AQUILINE
    07. Проверка на Полиграфе/LCFLUTTER

    General
    Unique ID : 194483483321918217351085138602462761380 (0x9250280B4306DA459EFB1D9AD23351A4)
    Complete name : F: GARRYQuantico.s02e01.WEBDL.1080p.NewStudio.TV.mkv
    Format : Matroska
    Format version : Version 4/Version 2
    File size : 1.78 GiB
    Duration : 42mn 55s
    Overall bit rate : 5 930 Kbps
    Encoded date : UTC 2016-09-29 23: 09: 13
    Writing application : mkvmerge v8.2.0 (\'World of Adventure\') 32bit
    Writing library : libebml v1.3.1 + libmatroska v1.4.2
    DURATION : 00: 41: 49.760000000
    NUMBER_OF_FRAMES : 27
    NUMBER_OF_BYTES : 2139
    _STATISTICS_WRITING_APP : mkvmerge v8.2.0 (\'World of Adventure\') 32bit
    _STATISTICS_WRITING_DATE_UTC : 2016-09-29 23: 09: 13
    _STATISTICS_TAGS : BPS DURATION NUMBER_OF_FRAMES NUMBER_OF_BYTES
    Video
    ID : 1
    Format : AVC
    Format/Info : Advanced Video Codec
    Format profile : High@L4
    Format settings, CABAC : Yes
    Format settings, ReFrames : 4 frames
    Codec ID : V_MPEG4/ISO/AVC
    Duration : 42mn 55s
    Bit rate : 5 044 Kbps
    Width : 1 920 pixels
    Height : 1 080 pixels
    Display aspect ratio : 16: 9
    Frame rate mode : Constant
    Frame rate : 23.976 fps
    Color space : YUV
    Chroma subsampling : 4: 2: 0
    Bit depth : 8 bits
    Scan type : Progressive
    Bits/(Pixel*Frame) : 0.101
    Stream size : 1.51 GiB (85%)
    Language : English
    Default : Yes
    Forced : No
    Color range : Limited
    Color primaries : BT.709
    Transfer characteristics : BT.709
    Matrix coefficients : BT.709
    Audio #1
    ID : 2
    Format : AC-3
    Format/Info : Audio Coding 3
    Mode extension : CM (complete main)
    Format settings, Endianness : Big
    Codec ID : A_AC3
    Duration : 42mn 55s
    Bit rate mode : Constant
    Bit rate : 384 Kbps
    Channel(s) : 6 channels
    Channel positions : Front: L C R, Side: L R, LFE
    Sampling rate : 48.0 KHz
    Compression mode : Lossy
    Stream size : 118 MiB (6%)
    Title : NewStudio.TV
    Language : Russian
    Default : Yes
    Forced : No
    Audio #2
    ID : 3
    Format : AC-3
    Format/Info : Audio Coding 3
    Mode extension : CM (complete main)
    Format settings, Endianness : Big
    Codec ID : A_AC3
    Duration : 42mn 55s
    Bit rate mode : Constant
    Bit rate : 384 Kbps
    Channel(s) : 6 channels
    Channel positions : Front: L C R, Side: L R, LFE
    Sampling rate : 48.0 KHz
    Compression mode : Lossy
    Stream size : 118 MiB (6%)
    Language : English
    Default : No
    Forced : No
    Text
    ID : 4
    Format : ASS
    Codec ID : S_TEXT/ASS
    Codec ID/Info : Advanced Sub Station Alpha
    Compression mode : Lossless
    Title : Forced
    Language : Russian
    Default : Yes
    Forced : No


    Скриншоты для ознакомления




    Онлайн видео Куантико



    Куантико/Quantico (2016) WEB-DL [H.264/1080p-LQ] (сезон 2, серии 1-7 из 12) NewStudio (обновляемая)
    загрузка...
    Рейтинг →
     (голосов: 1, оценка 3/5, голосовать можно 1 раз )

    Другие торренты по теме:

  • База Куантико / Куантико / Quantico (2015) WEB-DLRip (сезон 1, серии 1 из 14) BaibaKo (обновляемая) скачать через торрент бесплатно
  • База Куантико / Куантико / Quantico (2015) WEB-DL [H.264 / 720p-LQ] (сезон 1, серия 1 из 14) (BaibaKo) (обновляемая) скачать через торрент бесплатно
  • База Куантико / Куантико / Quantico (2015) WEB-DLRip (сезон 1, серии 1 из 14) NewStudio (обновляемая) скачать через торрент бесплатно
  • База Куантико / Куантико / Quantico (2015) WEB-DLRip (сезон 1, серии 1-15 из 22) BaibaKo (обновляемая)
  • База Куантико / Куантико / Quantico (2015) WEB-DLRip (сезон 1, серии 1-14 из 22) NewStudio (обновляемая)
  • База Куантико / Куантико / Quantico (2015) WEB-DLRip [H.264 / 1080p-LQ] (сезон 1, серии 1-20 из 22) NewStudio (обновляемая)
  • База Куантико / Куантико / Quantico (2016) WEB-DL [H.264 / 720p-LQ] (сезон 2, серии 1-14 из 22) BaibaKo (обновляемая)
  • База Куантико / Куантико / Quantico (2016) WEB-DL [H.264 / 1080p-LQ] (сезон 2, серии 1-22 из 22) NewStudio [AD]


    • Комментарии (0):

      Информация

      Информация

        Посетители, находящиеся в группе Гости, не могут оставлять комментарии в данной новости.

        ↓ Меню




        ↓ Опрос

        Вы добавили сайт в закладки?
        Да
        Нет


        Top 10 за месяц (Фильмы)