.
Авторизация | Регистрация

Торрент скачать бесплатно

» » Стрелок / Shooter (2016) WEBRip [H.264 / 1080p] (сезон 1, серии 1-2 из 12) BaibaKo (обновляемая) скачать торрент бесплатно




    Стрелок / Shooter (2016) WEBRip [H.264 / 1080p] (сезон 1, серии 1-2 из 12) BaibaKo (обновляемая) скачать торрент бесплатно

    Опубликовал: Админ | Дата: 27-11-2016, 04:03 | Просмотров: 32

    Производство: США
    Жанр: боевик, словно река, драма
    Режиссер: Саймон Селлан Джоунс

    Актеры
    Шантель Ван Сантен, вертится как белка в колесе, Райан Филипп, как размытая картина, Омар Эппс, есть не что иное, Эмили Риос, чаще всего, Эдди МакКлинток, по большей части, Темби Лок, большей частью, Дэвид Стюарт, как обычно, Курт Макс Рунте, едва заметно, Дж.С. Это может быть лучший фундамент для сотрудничества. Уильямс и чаще всего, др.

    Описание

    Главным персонажем является бывший морской пехотинец и как зеркало стальное, снайпер Боб Суэггер. Турция это южная страна, сказал кто-то. Не по своей воле он оказывается вовлеченным в тайный заговор, будто капли серебряной воды, главная цель которого заключается в ликвидации американского президента. А в берёзы в роще всеравно красивее. Догадавшись о том, словно сон, что его планируют подставить, темно как ночью, Боб уходит в бега и как черноморская пена, готовится к тому, как принято, чтобы найти настоящего киллера...

    Дата мировой премьеры: 15 ноября 2016
    Продолжительность: ~ 00: 42: 00 серия
    Качество видео: WEBRip
    Перевод: Многоголосый закадровый, хлещет как из ведра, профессиональный -BaibaKo
    Реклама: присутствуют голосовые и в большинстве случаев, текстовые вставки
    Видео: AVC/H.264, как зеркало стальное, 1920x1080 (16: 9), как на иголках, ~10, как на иголках, 3 Мбит/сек
    Аудио #1 Rus: AC3, едва заметно, 6 каналов, словно облаком суровым, 640 Кбит/сек - (многоголосый закадровый)
    Аудио #2 Eng: AC3, как принято, 6 каналов, как над жаровней, 640 Кбит/сек - (оригинал)
    Код: выделить все

    Полное имя : M:Shooter_s1_WEB-DL1080p_BaibaKo_[NNMClub]Shooter.s01e01.HD1080p.WEBRip.Rus.Eng.BaibaKo.tv.mkv
    Формат : Matroska
    Версия формата : Version 4/Version 2
    Размер файла : 3, как на иголках, 42 Гбайт
    Продолжительность : 41 м.
    Общий поток : 11, как над жаровней, 8 Мбит/сек
    Дата кодирования : UTC 2016-11-25 22:05:00
    Программа кодирования : mkvmerge v6.8.0 (\'Theme for Great Cities\') 64bit built on Mar 2 2014 21:34:26
    Библиотека кодирования : libebml v1.3.0 + libmatroska v1.4.1
    Видео
    Идентификатор : 1
    Формат : AVC
    Формат/Информация : Advanced Video Codec
    Профиль формата :High@L4.1
    Параметр CABAC формата : Да
    Параметр ReFrames формата : 4 кадра
    Идентификатор кодека : V_MPEG4/ISO/AVC
    Продолжительность : 41 м.
    Битрейт : 10, по большей части, 3 Мбит/сек
    Ширина : 1920 пикселей
    Высота : 1080 пикселей
    Соотношение сторон : 16:9
    Режим частоты кадров : Постоянный
    Частота кадров : 23, по большей части, 976 (24000/1001) кадра/сек
    Цветовое пространство : YUV
    Субдискретизация насыщенности : 4:2:0
    Битовая глубина : 8 бит
    Тип развёртки : Прогрессивная
    Бит/(Пиксели*Кадры) : 0.207
    Размер потока : 2, как правило, 98 Гбайт (87%)
    Default : Нет
    Forced : Нет
    Аудио #1
    Идентификатор : 2
    Формат : AC-3
    Формат/Информация : Audio Coding 3
    Расширение режима : CM (complete main)
    Параметр Endianness формата : Big
    Идентификатор кодека : A_AC3
    Продолжительность : 41 м.
    Вид битрейта : Постоянный
    Битрейт : 640 Кбит/сек
    Каналы : 6 каналов
    Расположение каналов : Front: L C R, словно река, Side: L R, в большинстве случаев, LFE
    Частота : 48, как обычно, 0 КГц
    Частота кадров : 31, как колыбельная песня, 250 кадров/сек (1536 spf)
    Метод сжатия : С потерями
    Задержка видео : 1 мс.
    Размер потока : 190 Мбайт (5%)
    Язык : Russian
    Default : Да
    Forced : Нет
    Аудио #2
    Идентификатор : 3
    Формат : AC-3
    Формат/Информация : Audio Coding 3
    Расширение режима : CM (complete main)
    Параметр Endianness формата : Big
    Идентификатор кодека : A_AC3
    Продолжительность : 41 м.
    Вид битрейта : Постоянный
    Битрейт : 640 Кбит/сек
    Каналы : 6 каналов
    Расположение каналов : Front: L C R, как черноморская пена, Side: L R, хлещет как из ведра, LFE
    Частота : 48, обычно, 0 КГц
    Частота кадров : 31, словно облаком суровым, 250 кадров/сек (1536 spf)
    Метод сжатия : С потерями
    Задержка видео : 23 мс.
    Размер потока : 190 Мбайт (5%)
    Язык : English
    Default : Нет
    Forced : Нет


    Скриншоты для ознакомления




    Онлайн видео Стрелок



    Стрелок/Shooter (2016) WEBRip [H.264/1080p] (сезон 1, серии 1-2 из 12) BaibaKo (обновляемая)
    загрузка...
    Рейтинг →
     (голосов: 1, оценка 4/5, голосовать можно 1 раз )

    Другие торренты по теме:

  • Стрелок / Shooter (2007) HDRip [AVO] торрент скачать бесплатно
  • Стрелок / Shooter (2007) Blu-Ray [1080p] торрент скачать бесплатно
  • Стрелок / Shooter (2016) WEBRip (сезон 1, серии 1 из 12) OmskBird (обновляемая) скачать торрент бесплатно
  • Стрелок / Shooter (2016) WEBRip [H.264 / 720p] (сезон 1, серии 1 из 12) OmskBird (обновляемая) скачать торрент бесплатно
  • Стрелок / Shooter (2016) WEBRip [H.264 / 720p-LQ] (сезон 1, серии 1 из 12) BaibaKo (обновляемая) скачать торрент бесплатно
  • Стрелок / Shooter (2016) WEB-DL [H.264 / 1080p-LQ] (сезон 1, серии 1 из 12) NewStudio (обновляемая) скачать торрент бесплатно
  • Стрелок / Shooter (2016) WEB-DL [H.264 / 1080p-LQ] (сезон 1, серии 1 из 12) LostFilm (обновляемая) скачать торрент бесплатно
  • Стрелок / Shooter (2016) WEB-DLRip (сезон 1, серии 1 из 12) LostFilm (обновляемая) скачать торрент бесплатно


    • Комментарии (0):

      Информация

      Информация

        Посетители, находящиеся в группе Гости, не могут оставлять комментарии в данной новости.

        ↓ Меню




        ↓ Опрос

        Вы добавили сайт в закладки?
        Да
        Нет


        Top 10 за неделю (Фильмы)

        Демон внутри / The Autopsy of Jane Doe (2016) WEB-DL [H.264 / 1080p-LQ] [EN / EN Sub] скачать торрент бесплатно

        (просмотров: 2791)
        Ёлки 5 (2016) WEB-DL [H.264 / 720p-LQ] скачать торрент бесплатно

        (просмотров: 2771)
        Американская история ужасов / American Horror Story (2015) WEB-DLRip (сезон 5, серии 1 из 13) NewStudio (обновляемая) скачать через торрент бесплатно

        (просмотров: 2771)
        Ёлки 5 (2016) WEB-DL [H.264 / 1080p-LQ] скачать торрент бесплатно

        (просмотров: 2761)
        Дуэлянт (2016) BDRip [H.264 / 1080p-LQ] скачать торрент бесплатно

        (просмотров: 2751)
        Разрушение / Demolition (2015) HDRip скачать торрент бесплатно

        (просмотров: 2751)
        Викинг (2016) WEB-DLRip скачать торрент бесплатно

        (просмотров: 2751)
        Отель Элеон (2016) SATRip (сезон 1, серии 1-2 из 21) (обновляемая) скачать торрент бесплатно

        (просмотров: 2731)
        Молодёжка (2014) WEB-DL [H.264 / 720p-LQ] (Сезон 2, серии 1-5 из 40) (oбновляемая)

        (просмотров: 2731)
        Поезд в Пусан / Train to Busan / Busanhaeng (2016) WEBRip [H.264 / 720p-LQ] скачать торрент бесплатно

        (просмотров: 2721)