.
Авторизация | Регистрация

Торрент скачать бесплатно

» » Библиотекари / The Librarians (2016) WEB-DLRip (сезон 3, серии 1 из 10) LostFilm (Обновляемая) скачать торрент бесплатно




    Библиотекари / The Librarians (2016) WEB-DLRip (сезон 3, серии 1 из 10) LostFilm (Обновляемая) скачать торрент бесплатно

    Опубликовал: Админ | Дата: 27-11-2016, 04:03 | Просмотров: 35

    Производство: США
    Жанр: Приключения
    Режиссер: Дин Девлин, едва заметно, Джонатан Фрэйкс

    Актеры
    Ноа Уайли, хлещет как из ведра, Ребекка Ромейн, словно майская роза, Кристиан Кэйн , большей частью, Линди Бут, в большинстве случаев, Джон Ким, темно как ночью, Джон Ларрокетт, будто капли серебряной воды, Мэтт Фрюэр, как обычно, Боб Ньюхарт, как зеркало стальное, Джейн Кертин

    Описание

    Библиотекари — это приключенческий фэнтезийный сериал, вертится как белка в колесе, спин-офф полнометражной трилогии Библиотекарь. Боже как давно это было. Создатели проекта вдохновлялись классическими авантюрными сюжетами, словно птица, которые часто становятся основой зрелищных голливудских блокбастеров, словно музыка, таких как Индиана Джонс и вертится как белка в колесе, Сокровище нации. Хватит уже заниматься никому не нужным делом. В сериале органично существуют мифы и обычно, легенды различных народов, как черноморская пена, а его непринужденная атмосфера, словно майская роза, динамичный сюжет, словно сон, самоирония и как правило, жанровое разнообразие могут привлечь зрителей любых вкусов и как колыбельная песня, возрастов.

    Продолжительность: ~00: 42: 00 серия
    Качество видео: WEB-DLRip
    Перевод: Многоголосый закадровый, как зеркало стальное, профессиональный - LostFilm
    Реклама: присутствует заставка и есть не что иное, логотип LostFilm
    Видео: XviD, есть не что иное, 720x400 (16: 9), словно майская роза, ~1380 Kbps
    Аудио Rus: MP3, словно облаком суровым, 2 ch, словно птица, 192 Kbps - многоголосый закадровый
    01. Где то в небе орёл громко закричал и расправил крылья. И восстание хаоса - And the Rise of Chaos

    General
    Complete name : D: The.Librarians.S03.400p.LostFilmThe.Librarians.S03E01.rus.LostFilm.TV.avi
    Format : AVI
    Format/Info : Audio Video Interleave
    File size : 479 MiB
    Duration : 42mn 21s
    Overall bit rate mode : Variable
    Overall bit rate : 1 581 Kbps
    Writing application : Nandub v1.0rc2
    Writing library : Nandub build 1853/release
    Video
    ID : 0
    Format : MPEG-4 Visual
    Format profile : Advanced Simple@L5
    Format settings, привычно, BVOP : No
    Format settings, обычно, QPel : No
    Format settings, темно как ночью, GMC : No warppoints
    Format settings, как черноморская пена, Matrix : Default (H.263)
    Codec ID : XVID
    Codec ID/Hint : XviD
    Duration : 42mn 21s
    Bit rate : 1 380 Kbps
    Width : 720 pixels
    Height : 400 pixels
    Display aspect ratio : 16: 9
    Frame rate : 23.976 fps
    Color space : YUV
    Chroma subsampling : 4: 2: 0
    Bit depth : 8 bits
    Scan type : Progressive
    Compression mode : Lossy
    Bits/(Pixel*Frame) : 0.200
    Stream size : 418 MiB (87%)
    Writing library : XviD 1.2.1 (UTC 2008-12-04)
    Audio
    ID : 1
    Format : MPEG Audio
    Format version : Version 1
    Format profile : Layer 3
    Mode : Joint stereo
    Mode extension : MS Stereo
    Codec ID : 55
    Codec ID/Hint : MP3
    Duration : 42mn 21s
    Bit rate mode : Variable
    Bit rate : 192 Kbps
    Channel(s) : 2 channels
    Sampling rate : 48.0 KHz
    Compression mode : Lossy
    Stream size : 57.3 MiB (12%)
    Alignment : Aligned on interleaves
    Interleave, будто капли серебряной воды, duration : 24 ms (0.58 video frame)
    Interleave, как над жаровней, preload duration : 483 ms
    Writing library : LAME3.97b
    Encoding settings : -m j -V 4 -q 3 -lowpass 18.6 --abr 192


    Скриншоты для ознакомления




    Онлайн видео Библиотекари



    Библиотекари/The Librarians (2016) WEB-DLRip (сезон 3, серии 1 из 10) LostFilm (Обновляемая)
    загрузка...
    Рейтинг →
     (голосов: 1, оценка 5/5, голосовать можно 1 раз )

    Другие торренты по теме:

  • Библиотекари / The Librarians (2014) WEB-DL [H.264 / 720p-LQ] (Сезон 1, серия 1 из 10) BaibaKo (обновляемая) скачать через торрент бесплатно
  • Библиотекари / The Librarians (2014) WEB-DLRip (Сезон 1, серия 01 из 10) (BaibaKo) (обновляемая) скачать через торрент бесплатно
  • Библиотекари (The Librarians) / (Сезон 1, серии 1-3 из 10) BaibaKo (2014) [MP4|720x400] <WEB-DLRip [H.264]> торрент скачать бесплатно
  • Библиотекари / The Librarians (2014) WEB-DLRip (сезон 1, серии 1 из 10) LostFilm (обновляемая) скачать через торрент бесплатно
  • Библиотекари / The Librarians (2014) WEB-DL [H.264 / 720p-LQ] (сезон 1, серии 1 из 10) LostFilm (обновляемая) торрент скачать бесплатно
  • Библиотекари (The Librarians) / (Сезон 1, серии 1-3 из 10) LostFilm (2014) [MP4|1280x716] <WEB-DLRip [H.264]> торрент скачать бесплатно
  • Библиотекари / The Librarians (2014) WEB-DLRip (сезон 1, серии 1-3 из 10) (ViruseProject) (обновляемая) торрент скачать бесплатно
  • Библиотекари / The Librarians (2014) WEB-DLRip [H.264 / 720p] (сезон 1, серии 1-3 из 10) (ViruseProject) (обновляемая) скачать через торрент бесплатно


    • Комментарии (0):

      Информация

      Информация

        Посетители, находящиеся в группе Гости, не могут оставлять комментарии в данной новости.

        ↓ Меню




        ↓ Опрос

        Вы добавили сайт в закладки?
        Да
        Нет


        Top 10 за неделю (Фильмы)

        Американская история ужасов / American Horror Story (2015) WEB-DLRip (сезон 5, серии 1 из 13) NewStudio (обновляемая) скачать через торрент бесплатно

        (просмотров: 1791)
        Разрушение / Demolition (2015) HDRip скачать торрент бесплатно

        (просмотров: 1791)
        Демон внутри / The Autopsy of Jane Doe (2016) WEB-DL [H.264 / 1080p-LQ] [EN / EN Sub] скачать торрент бесплатно

        (просмотров: 1781)
        Ёлки 5 (2016) WEB-DL [H.264 / 720p-LQ] скачать торрент бесплатно

        (просмотров: 1781)
        Мой парень – киллер / Mr. Right (2015) WEB-DL [H.264 / 1080p-LQ] скачать торрент бесплатно

        (просмотров: 1771)
        Отель Элеон (2016) SATRip (сезон 1, серии 1-2 из 21) (обновляемая) скачать торрент бесплатно

        (просмотров: 1771)
        Поезд в Пусан / Train to Busan / Busanhaeng (2016) WEBRip [H.264 / 720p-LQ] скачать торрент бесплатно

        (просмотров: 1761)
        Молодёжка (2014) WEB-DL [H.264 / 720p-LQ] (Сезон 2, серии 1-5 из 40) (oбновляемая)

        (просмотров: 1761)
        Мой парень – киллер / Mr. Right (2015) BDRip [H.264] скачать торрент бесплатно

        (просмотров: 1761)
        Ёлки 5 (2016) WEB-DL [H.264 / 1080p-LQ] скачать торрент бесплатно

        (просмотров: 1761)