.
Авторизация | Регистрация
Хочешь лучшие торренты? Добавь свой email!
Добавить

Торрент скачать бесплатно

» » Гарри Поттер: Коллекция / Happy Potter: Collection (2001 - 2011) [H.265 / BDRip-LQ] [Main10] торрент скачать бесплатно




    Гарри Поттер: Коллекция / Happy Potter: Collection (2001 - 2011) [H.265 / BDRip-LQ] [Main10] торрент скачать бесплатно

    Опубликовал: Админ | Дата: 26-11-2016, 04:00 | Просмотров: 51

    Производство: США, Великобритания/Warner Bros. Pictures, Heyday Films, 1492 Pictures
    Жанр: Фэнтези, Приключения, Семейный
    Режиссер: Крис Коламбус, Альфонсо Куарон, Майк Ньюэлл, Дэвид Йэтс

    Актеры
    Дэниэл Рэдклифф, Руперт Гринт, Эмма Уотсон, Ричард Харрис, Алан Рикман, Мэгги Смит, Робби Колтрейн, Том Фелтон, Мэттью Льюис, Иэн Харт

    Описание

    Серия романов, написанных английской писательницей Джоан К. Роулинг, является летописью жизни молодого волшебника Гарри Поттера и его друзей: Гермионы Грейнджер и Рона Уизли. Все они являются студентами в Хогвартс. Основная фабула истории касается борьбы Гарри против Лорда Волдеморта - темного волшебника, который намеревается стать бессмертными, свергнуть мастера Министерства Магии, и подчинить себе всех магов и маглов.
    Возраст: 12+ (зрителям, достигшим 12 лет)
    Рейтинг MPAA: PG-13 (детям до 13 лет просмотр нежелателен)
    Релиз от: MZABI
    Качество видео: BDRip
    Перевод: Дублированный
    Язык субтитров: Русский
    Вид субтитров: Вшитые (форсированные и полные, отключаемые)
    Продолжительность: 02: 38: 51/02: 54: 24/02: 21: 42/02: 37: 06/02: 18: 14/02: 33: 32/02: 26: 05/02: 10: 27
    Видео: HEVC/H.265, 1920x800, ~6000 Kbps
    Аудио: AC3, 6 ch, (384 Kbps - 640 Kbps), CBR
    Производство: США, Великобритания/Warner Bros. Pictures, Heyday Films, 1492 Pictures
    Жанр: Фэнтези, Приключения, Семейный
    Режиссер: Крис Коламбус

    Актеры
    Дэниэл Рэдклифф, Руперт Гринт, Эмма Уотсон, Ричард Харрис, Алан Рикман, Мэгги Смит, Робби Колтрейн, Том Фелтон, Мэттью Льюис, Иэн Харт

    Описание

    Жизнь десятилетнего Гарри Поттера нельзя назвать сладкой: его родители умерли, едва ему исполнился год, а от дяди и тётки, взявших сироту на воспитание, достаются лишь тычки да подзатыльники. Но в одиннадцатый день рождения Гарри всё меняется. Странный гость, неожиданно появившийся на пороге, приносит письмо, из которого мальчик узнаёт, что на самом деле он волшебник и принят в Хогвартс - школу магии. А уже через пару недель Гарри будет мчаться в поезде Хогвартс-экспресс навстречу новой жизни, где его ждут невероятные приключения, верные друзья и самое главное - ключ к разгадке тайны смерти его родителей.

    Возраст: 12+ (зрителям, достигшим 12 лет)
    Рейтинг MPAA: PG (рекомендуется присутствие родителей)
    Релиз от: MZABI
    Продолжительность: 02: 38: 51
    Качество видео: BDRip
    Перевод: Дублированный (полный дубляж, со сценами из Extended Cut)
    Язык субтитров: Русский
    Вид субтитров: Вшитые (форсированные и полные, отключаемые)
    Видео: HEVC/H.265, 1920x800, ~6000 Kbps
    Аудио: AC3, 6 ch, 448 Kbps, CBR

    Общее
    Уникальный идентификатор : 189453847718407040199266466242817626265 (0x8E877BDCF09FF5C78F4D045E22831099)
    Полное имя : E: VideoГарри Поттер. Коллекция (Harry Potter)Гарри Поттер и философский камень (Harry Potter and the Sorcerer\'s Stone) Extended Cut.mkv
    Формат : Matroska
    Версия формата : Version 4/Version 2
    Размер файла : 7, 16 Гбайт
    Продолжительность : 2 ч. 38 м.
    Общий поток : 6450 Кбит/сек
    Название фильма : Гарри Поттер и философский камень/Harry Potter and the Sorcerer\'s Stone Extended Cut
    Дата кодирования : UTC 2016-11-24 09: 29: 42
    Программа кодирования : mkvmerge v9.0.1 (\'Obstacles\') 64bit
    Библиотека кодирования : libebml v1.3.3 + libmatroska v1.4.4
    Attachments : image.php1.jpg
    Видео
    Идентификатор : 1
    Формат : HEVC
    Формат/Информация : High Efficiency Video Coding
    Профиль формата : Main 10@L4@Main
    Идентификатор кодека : V_MPEGH/ISO/HEVC
    Продолжительность : 2 ч. 38 м.
    Битрейт : 6000 Кбит/сек
    Ширина : 1920 пикселей
    Высота : 800 пикселей
    Соотношение сторон : 2, 40: 1
    Режим частоты кадров : Постоянный
    Частота кадров : 23, 976 (24000/1001) кадра/сек
    Цветовое пространство : YUV
    Субдискретизация насыщенности : 4: 2: 0
    Битовая глубина : 10 бит
    Бит/(Пиксели*Кадры) : 0.163
    Размер потока : 6, 66 Гбайт (93%)
    Заголовок : Harry Potter and the Sorcerer\'s Stone 2001 Ultimate Extended Edition 1080p Blu-ray Multisub Remux VC-1 DTS-HD MA 5.1 - KRaLiMaRKo
    Библиотека кодирования : x265 1.9+140-34a3d35c5f97: WindowsGCC 5.3.064 bit 10bit
    Настройки программы : wpp/ctu=64/min-cu-size=8/max-tu-size=32/tu-intra-depth=1/tu-inter-depth=1/me=1/subme=2/merange=57/no-rect/no-amp/max-merge=2/temporal-mvp/no-early-skip/rdpenalty=0/no-tskip/no-tskip-fast/strong-intra-smoothing/no-lossless/no-cu-lossless/no-constrained-intra/no-fast-intra/open-gop/no-temporal-layers/interlace=0/keyint=250/min-keyint=23/scenecut=40/rc-lookahead=20/lookahead-slices=5/bframes=4/bframe-bias=0/b-adapt=2/ref=3/limit-refs=3/no-limit-modes/weightp/no-weightb/aq-mode=1/qg-size=32/aq-strength=1.00/cbqpoffs=0/crqpoffs=0/rd=3/psy-rd=2.00/rdoq-level=0/psy-rdoq=0.00/no-rd-refine/signhide/deblock=0: 0/sao/no-sao-non-deblock/b-pyramid/cutree/no-intra-refresh/rc=2/pass/bitrate=6000/qcomp=0.60/qpmin=0/qpmax=51/qpstep=4/cplxblur=20.0/qblur=0.5/ipratio=1.40/pbratio=1.30
    Default : Да
    Forced : Нет
    Аудио
    Идентификатор : 2
    Формат : AC-3
    Формат/Информация : Audio Coding 3
    Расширение режима : CM (complete main)
    Параметр Endianness формата : Big
    Идентификатор кодека : A_AC3
    Продолжительность : 2 ч. 38 м.
    Вид битрейта : Постоянный
    Битрейт : 448 Кбит/сек
    Каналы : 6 каналов
    Расположение каналов : Front: L C R, Side: L R, LFE
    Частота : 48, 0 КГц
    Частота кадров : 31, 250 кадров/сек (1536 spf)
    Метод сжатия : С потерями
    Размер потока : 509 Мбайт (7%)
    Заголовок : Перевод: Профессиональный (дублированый)
    Язык : Russian
    Default : Да
    Forced : Нет
    Текст #1
    Идентификатор : 3
    Формат : UTF-8
    Идентификатор кодека : S_TEXT/UTF8
    Идентификатор кодека/Информация : UTF-8 Plain Text
    Продолжительность : 1 ч. 43 м.
    Битрейт : 6 бит/сек
    Count of elements : 86
    Размер потока : 5, 21 Кбайт (0%)
    Заголовок : Форсированные
    Язык : Russian
    Default : Да
    Forced : Нет
    Текст #2
    Идентификатор : 4
    Формат : UTF-8
    Идентификатор кодека : S_TEXT/UTF8
    Идентификатор кодека/Информация : UTF-8 Plain Text
    Продолжительность : 2 ч. 29 м.
    Битрейт : 74 бит/сек
    Count of elements : 1315
    Размер потока : 82, 2 Кбайт (0%)
    Заголовок : Полные
    Язык : Russian
    Default : Нет
    Forced : Нет
    XMP
    Xmp.video.FileName : E: VideoГарри Поттер. Коллекция (Harry Potter)Гарри Поттер и философский камень (Harry Potter and the Sorcerer\'s Stone) Extended Cut.mkv
    Xmp.video.FileSize : -9.53674e-007
    Xmp.video.MimeType : video/matroska
    Xmp.video.EBMLVersion : 1
    Xmp.video.EBMLReadVersion : 1
    Xmp.video.DocType : matroska
    Xmp.video.DocTypeVersion : 4
    Xmp.video.DocTypeReadVersion : 2
    Xmp.video.TimecodeScale : 0.001
    Xmp.video.MuxingApp : libebml v1.3.3 + libmatroska v1.4.4
    Xmp.video.WritingApp : mkvmerge v9.0.1 (\'Obstacles\') 64bit
    Xmp.video.Duration : 9530656
    Xmp.video.DateUTC : 501672582
    Xmp.video.Title : Гарри Поттер Рё фиРософский камень/Harry Potter and the Sorcerer\'s Stone Extended Cut
    Xmp.video.TotalStream : 4
    Xmp.video.TrackLacing : No
    Xmp.video.Codec : V_MPEGH/ISO/HEVC
    Xmp.video.FrameRate : 23.976
    Xmp.video.TrackLang : und
    Xmp.video.TrackName : РџРѕРные
    Xmp.video.Width : 1920
    Xmp.video.Height : 800
    Xmp.audio.Compressor : A_AC3
    Xmp.audio.DefaultDuration : 32000
    Xmp.audio.TrackLang : rus
    Xmp.audio.SampleRate : 48000
    Xmp.video.SubTTrackLacing : No
    Xmp.video.SubTCodec : S_TEXT/UTF8
    Xmp.video.SubTLang : rus
    Xmp.video.SubTDefaultOn : No
    Xmp.video.AttachFileName : image.php1.jpg
    Xmp.video.AttachFileMIME : image/jpeg
    Xmp.video.AttachFileUID : -5040669568295219777
    Xmp.video.AttachFileDesc : BD cover
    Xmp.video.AspectRatio : 2.4


    Скриншоты для ознакомления




    Онлайн видео Гарри Поттер: Коллекция



    Гарри Поттер: Коллекция/Happy Potter: Collection (2001 - 2011) [H.265/BDRip-LQ] [Main10]
    загрузка...
    Рейтинг →
     (голосов: 1, оценка 5/5, голосовать можно 1 раз )

    Другие торренты по теме:

  • Гарри Поттер и Кубок огня / Harry Potter and the Goblet of Fire (2005) HDRip [H.264] [Ultimate Cut]
  • Гарри Поттер и Орден Феникса / Harry Potter and the Order of the Phoenix (2007) HDRip [H.264] [Ultimate Cut]
  • Джоан Роулинг | Гарри Поттер и Кубок огня [2008] [M4B | AAC] скачать через торрент бесплатно
  • Джоан Роулинг | Гарри Поттер и Дары Смерти [2011] [M4B | AAC] скачать через торрент бесплатно
  • Джоан Роулинг | Гарри Поттер и Принц-полукровка [2011] [M4B | AAC] скачать через торрент бесплатно
  • Джоан Роулинг | Гарри Поттер и Орден Феникса [2008] [M4B | AAC] скачать через торрент бесплатно
  • Джоан Роулинг | Гарри Поттер и узник Азкабана [2006] [M4B | AAC] скачать через торрент бесплатно
  • Джоан Роулинг | Гарри Поттер и Тайная комната [2006] [M4B | AAC] скачать через торрент бесплатно


    • Комментарии (0):

      Информация

      Информация

        Посетители, находящиеся в группе Гости, не могут оставлять комментарии в данной новости.

        ↓ Меню




        ↓ Опрос

        Вы добавили сайт в закладки?
        Да
        Нет


        Top 10 за месяц (Фильмы)