.
Авторизация | Регистрация
Хочешь лучшие торренты? Добавь свой email!
Добавить

Торрент скачать бесплатно

» » Чудо на Гудзоне / Sully (2016) WEBRip [H.264 / 1080p-LQ] [Line] торрент скачать бесплатно




    Чудо на Гудзоне / Sully (2016) WEBRip [H.264 / 1080p-LQ] [Line] торрент скачать бесплатно

    Опубликовал: Админ | Дата: 26-11-2016, 04:00 | Просмотров: 37

    Производство: США
    Жанр: Драма, Биография
    Режиссер: Клинт Иствуд
    Продюсер: Клинт Иствуд, Фрэнк Маршалл, Брюс Берман

    Актеры
    Том Хэнкс, Аарон Экхарт, Валери Махаффей, Делфи Хэррингтон, Майк О’Мэлли, Джейми Шеридан, Анна Ганн, Холт МакКэллани, Ахмед Хуссэйн, Лора Линни.

    Описание

    Произошедшее 15 января 2009 года назовут Чудом на Гудзоне. В тот день капитан рейса 1549 Чесли Салленбергер совершил аварийную посадку самолета A320 на холодные воды реки Гудзон в Нью-Йорке. Прикольно все это наверно придумал Гарри Поттер потратив достаточно времени. При этом никто из находившихся на борту 155 человек не пострадал. Но, несмотря на все почести со стороны общественности и СМИ, было начато расследование, которое угрожало профессиональной репутации и многолетней карьере капитана Салли.

    Возраст: 16+ (зрителям, достигшим 16 лет)
    Рейтинг MPAA: PG-13 (детям до 13 лет просмотр нежелателен)
    Дата мировой премьеры: 2 сентября 2016
    Дата российской премьеры: 8 сентября 2016, Каро-Премьер
    Релиз от: KOSHARA
    Продолжительность: 01: 35: 27
    Качество видео: WEBRip 1080p
    Перевод: Дублированный(Чистый звук)
    Язык субтитров: Корейский
    Вид субтитров: Вшитые неотключаемые
    Реклама: Присутствуют аудио, текстовые вставки рекламы. Начальный рекламный видеоролик вырезан.
    Видео: AVC/H.264, 1920x800, 30.000 fps, ~5217 Kbps
    Аудио: AC3, 2 ch, 384 Kbps, CBR
    YouTube

    Общее
    Уникальный идентификатор : 201164081324265264491078013457284773784 (0x9756CAF4A9A0D0EB9140B39AA3F4B798)
    Полное имя : D: ФильмыМои раздачиЧудо на ГудзонеЧудо на Гудзоне.2016.D.WEBRip.1080p.mkv
    Формат : Matroska
    Версия формата : Version 2
    Размер файла : 3, 81 Гбайт
    Продолжительность : 1 ч. 35 м.
    Режим общего битрейта : Переменный
    Общий поток : 5715 Кбит/сек
    Дата кодирования : UTC 2016-11-24 22: 27: 41
    Программа кодирования : mkvmerge v3.3.0 (\'Language\') сборка от May 14 2010 17: 11: 50
    Библиотека кодирования : libebml v0.8.0 + libmatroska v0.9.0
    DURATION : 01: 35: 53.088000000
    NUMBER_OF_FRAMES : 179784
    NUMBER_OF_BYTES : 276148224
    _STATISTICS_WRITING_APP : mkvmerge v8.3.0 (\'Over the Horizon\') 64bit
    _STATISTICS_WRITING_DATE_UTC : 2016-11-24 12: 23: 48
    _STATISTICS_TAGS : BPS DURATION NUMBER_OF_FRAMES NUMBER_OF_BYTES
    Видео
    Идентификатор : 1
    Формат : AVC
    Формат/Информация : Advanced Video Codec
    Профиль формата : High@L4.1
    Параметр CABAC формата : Да
    Параметр ReFrames формата : 5 кадров
    Идентификатор кодека : V_MPEG4/ISO/AVC
    Продолжительность : 1 ч. О таком странном сюжете не догадывалась даже Бейонсе. 35 м.
    Вид битрейта : Переменный
    Битрейт : 5217 Кбит/сек
    Максимальный битрейт : 6000 Кбит/сек
    Ширина : 1920 пикселей
    Высота : 800 пикселей
    Соотношение сторон : 2, 40: 1
    Режим частоты кадров : Постоянный
    Частота кадров : 30, 000 кадров/сек
    Стандарт вещания : Component
    Цветовое пространство : YUV
    Субдискретизация насыщенности : 4: 2: 0
    Битовая глубина : 8 бит
    Тип развёртки : Прогрессивная
    Бит/(Пиксели*Кадры) : 0.113
    Размер потока : 3, 48 Гбайт (91%)
    Default : Нет
    Forced : Нет
    Основные цвета : BT.709
    Характеристики трансфера : BT.709
    Коэффициенты матрицы : BT.709
    Аудио
    Идентификатор : 2
    Формат : AC-3
    Формат/Информация : Audio Coding 3
    Расширение режима : CM (complete main)
    Параметр Endianness формата : Big
    Идентификатор кодека : A_AC3
    Продолжительность : 1 ч. 35 м.
    Вид битрейта : Постоянный
    Битрейт : 384 Кбит/сек
    Каналы : 2 канала
    Расположение каналов : Front: L R
    Частота : 48, 0 КГц
    Битовая глубина : 16 бит
    Метод сжатия : С потерями
    Задержка видео : 8 мс.
    Размер потока : 262 Мбайт (7%)
    Default : Нет
    Forced : Нет

    Скриншоты для ознакомления



    Все одноименные релизы в Клубе
    Время раздачи: с 12: 00 до 02: 00 (до появления первых 3-5 скачавших)

    Чудо на Гудзоне/Sully (2016) WEBRip [H.264/1080p-LQ] [Line]
    загрузка...
    Рейтинг →
     (голосов: 1, оценка 4/5, голосовать можно 1 раз )

    Другие торренты по теме:

  • Чудо на Гудзоне / Sully (2016) WEBRip [H.264 / 1080p] [Трейлер]
  • Чесли Б. «Салли» Салленбергер, Джеффри Заслоу | Чудо на Гудзоне (2016) [FB2]
  • Чудо на Гудзоне / Sully (2016) CamRip
  • Чесли Б. «Салли» Салленбергер, Джеффри Заслоу | Чудо на Гудзоне (2016) [MP3]
  • Чудо на Гудзоне / Sully (2016) WEBRip [H.264 / 1080p-LQ] [звук с CamRip]
  • Чудо на Гудзоне / Sully (2016) WEBRip [H.264 / 720p-LQ] [звук с CamRip]
  • Чудо на Гудзоне / Sully (2016) WEBRip [звук с CamRip]
  • Чудо на Гудзоне / Sully (2016) WEBRip [Line]


    • Комментарии (0):

      Информация

      Информация

        Посетители, находящиеся в группе Гости, не могут оставлять комментарии в данной новости.

        ↓ Меню




        ↓ Опрос

        Вы добавили сайт в закладки?
        Да
        Нет


        Top 10 за месяц (Фильмы)