.
Авторизация | Регистрация
Хочешь лучшие торренты? Добавь свой email!
Добавить

Торрент скачать бесплатно

» » Научи меня жить (2016) HDTVRip [H.264 / 720p] (сезон 1, серии 1-2 из 12) (обновляемая) торрент скачать бесплатно




    Научи меня жить (2016) HDTVRip [H.264 / 720p] (сезон 1, серии 1-2 из 12) (обновляемая) торрент скачать бесплатно

    Опубликовал: Админ | Дата: 25-11-2016, 04:00 | Просмотров: 19

    Производство: Россия/Компания Amalgama Studio
    Жанр: детектив
    Режиссер: Валентин Донсков

    Актеры
    Кирилл Кяро, Анна Попова, Алексей Барабаш, Елена Подкаминская, Игорь Скляр, Юрий Цурило, Андрей Казаков, Василий Мищенко, Елена Яковлева, Андрей Фролов.

    Описание

    В городе обнаруживают труп неизвестной женщины — ритуальный характер преступления предполагает появление в городе маньяка. В помощь штатному следователю Рите Сторожевой к расследованию привлекают профессионального психиатра Илью Лаврова, в прошлом уже участвовавшего в поимке маньяков. Личные мотивы и чувства, болезненные события прошлого, неспособность выйти на открытый контакт — всё это лишает расследование объективности и порождает череду драматических ошибок.

    Дата российской премьеры: 23 ноября 2016
    Продолжительность: ~00: 49: 00 серия
    Качество видео: HDTVRip 720p
    Видео: AVC/H.264, 1280x720, 25.000 fps, ~3500 Kbps
    Аудио: AC3, 2 ch, 192 Kbps, CBR
    YouTube

    Общее
    Уникальный идентификатор : 190727508955504794994400043072637419767 (0x8F7CC835D7CF8724B8CB2579F5F0C0F7)
    Полное имя : D: ФильмыМои раздачиНаучи меня житьНаучи меня жить.2016.HDTVRip.720pNauchi menja zhit\'.01.HDTVRip.720p.mkv
    Формат : Matroska
    Версия формата : Version 2
    Размер файла : 1, 26 Гбайт
    Продолжительность : 48 м.
    Общий поток : 3693 Кбит/сек
    Дата кодирования : UTC 2016-11-23 19: 37: 15
    Программа кодирования : mkvmerge v6.1.0 (\'Old Devil\') built on Mar 4 2013 09: 10: 42
    Библиотека кодирования : libebml v1.3.0 + libmatroska v1.4.0
    Видео
    Идентификатор : 1
    Формат : AVC
    Формат/Информация : Advanced Video Codec
    Профиль формата : High@L4.1
    Параметр CABAC формата : Да
    Параметр ReFrames формата : 9 кадров
    Идентификатор кодека : V_MPEG4/ISO/AVC
    Продолжительность : 48 м.
    Битрейт : 3500 Кбит/сек
    Ширина : 1280 пикселей
    Высота : 720 пикселей
    Соотношение сторон : 16: 9
    Режим частоты кадров : Постоянный
    Частота кадров : 25, 000 кадров/сек
    Цветовое пространство : YUV
    Субдискретизация насыщенности : 4: 2: 0
    Битовая глубина : 8 бит
    Тип развёртки : Прогрессивная
    Бит/(Пиксели*Кадры) : 0.152
    Размер потока : 1, 17 Гбайт (93%)
    Библиотека кодирования : x264 core 130 r2273 b3065e6
    Настройки программы : cabac=1/ref=9/deblock=1: -2: -1/analyse=0x3: 0x113/me=umh/subme=9/psy=1/psy_rd=1.00: 0.15/mixed_ref=1/me_range=32/chroma_me=1/trellis=2/8x8dct=1/cqm=0/deadzone=21, 11/fast_pskip=0/chroma_qp_offset=-3/threads=6/lookahead_threads=1/sliced_threads=0/nr=0/decimate=0/interlaced=0/bluray_compat=0/constrained_intra=0/bframes=9/b_pyramid=2/b_adapt=2/b_bias=0/direct=3/weightb=1/open_gop=0/weightp=2/keyint=250/keyint_min=25/scenecut=40/intra_refresh=0/rc_lookahead=50/rc=2pass/mbtree=1/bitrate=3500/ratetol=1.0/qcomp=0.60/qpmin=0/qpmax=69/qpstep=4/cplxblur=20.0/qblur=0.5/vbv_maxrate=50000/vbv_bufsize=50000/nal_hrd=none/ip_ratio=1.40/aq=2: 1.00
    Default : Да
    Forced : Нет
    Основные цвета : BT.709
    Характеристики трансфера : BT.709
    Коэффициенты матрицы : BT.709
    Аудио
    Идентификатор : 2
    Формат : AC-3
    Формат/Информация : Audio Coding 3
    Расширение режима : CM (complete main)
    Параметр Endianness формата : Big
    Идентификатор кодека : A_AC3
    Продолжительность : 48 м.
    Вид битрейта : Постоянный
    Битрейт : 192 Кбит/сек
    Каналы : 2 канала
    Расположение каналов : Front: L R
    Частота : 48, 0 КГц
    Битовая глубина : 16 бит
    Метод сжатия : С потерями
    Размер потока : 67, 2 Мбайт (5%)
    Default : Да
    Forced : Нет


    Скриншоты для ознакомления




    Онлайн видео Научи меня жить (2016) HDTVRip [H.264



    Научи меня жить (2016) HDTVRip [H.264/720p] (сезон 1, серии 1-2 из 12) (обновляемая)
    загрузка...
    Рейтинг →
     (голосов: 1, оценка 5/5, голосовать можно 1 раз )

    Другие торренты по теме:

  • Научи меня жить (2016) SATRip (сезон 1, серии 1-2 из 12) (обновляемая)
  • Научи меня жить (2016) HDTVRip (сезон 1, серии 1-2 из 12) (обновляемая)
  • Научи меня жить (2016) HDTV [H.264 / 1080i] (сезон 1, серии 1-2 из 12) (обновляемая)
  • Научи меня жить (2016) SATRip (серии 1-4 из 12) [H.264] (Обновляемая)
  • Научи меня жить (2016) WEB-DL [H.264 / 720p-LQ] (сезон 1, серии 1-8 из 12) (обновляемая)
  • Научи меня жить (2016) WEB-DLRip (сезон 1, серии 1-8 из 12) (обновляемая)
  • Научи меня жить (2016) WEB-DLRip [H.264 / 1080p-LQ] (сезон 1, серии 1-12 из 12)


    • Комментарии (0):

      Информация

      Информация

        Посетители, находящиеся в группе Гости, не могут оставлять комментарии в данной новости.

        ↓ Меню




        ↓ Опрос

        Вы добавили сайт в закладки?
        Да
        Нет


        Top 10 за месяц (Фильмы)