.
Авторизация | Регистрация
Хочешь лучшие торренты? Добавь свой email!
Добавить

Торрент скачать бесплатно

» » Эш против Зловещих мертвецов / Ash vs Evil Dead (2016) WEBRip [H.264 / 720p] (сезон 2, серии 1-8 из 10) Пучков (обновляемая) торрент скачать бесплатно




    Эш против Зловещих мертвецов / Ash vs Evil Dead (2016) WEBRip [H.264 / 720p] (сезон 2, серии 1-8 из 10) Пучков (обновляемая) торрент скачать бесплатно

    Опубликовал: Админ | Дата: 25-11-2016, 04:00 | Просмотров: 6

    Производство: США/Renaissance Pictures, Starz!
    Жанр: Ужасы, Фэнтези, Комедия
    Режиссер: Рик Джейкобсон, Майкл Дж. Бассетт, Дэвид Фрэйзи

    Актеры
    Брюс Кэмпбелл, Рэй Сантьяго, Дэна ДеЛоренцо, Джилл Мари Джонс, Люси Лоулесс, Самара Вивинг, Бен Френшам, Фил Пелетон, Хемки Мадера, Питер Вини и др.

    Описание

    30 лет он избегал ответственности за свои поступки, упорно старался не взрослеть и не особо стремился вновь встретиться с ожившими мертвецами. Но, совершив ошибку, Эш узнает, что проказа кандарийских демонов угрожает распространиться по всей планете и ему снова приходится вступить в схватку с полчищами мертвой нечисти. Реки крови, горы трупов и, конечно, искрометный черный юмор – отличный подарок всем любителям ужасов, комедий, крови, треша и угара.

    Возраст: 18+ (зрителям, достигшим 18 лет. запрещено для детей)
    Рейтинг MPAA: NC-17 (лицам до 17 лет просмотр запрещен)
    Продолжительность: ~00: 34: 00 серия
    Качество видео: WEBRip
    Перевод: Одноголосый закадровый, профессиональный - Дмитрий Пучков (Goblin)
    Реклама: отсутствует
    Видео: AVC/H.264, 1280x720, ~5552 kbps
    Аудио #1 Rus: AC3, 2 ch, 192 kbps - одноголосый закадровый
    Аудио #2 Eng: AC3, 6 ch, 384 kbps - оригинал

    Общее
    Уникальный идентификатор : 252091966643424818972792566259444742581 (0xBDA72590159D8FCB9A3DEBFA1E19F9B5)
    Полное имя : X: ATorrentAsh.vs.Evil.Dead.(Season.02).Goblin.720Ash.vs.Evil.Dead.S02E01.HD720.Goblin.qqss44.mkv
    Формат : Matroska
    Версия формата : Version 2
    Размер файла : 1, 39 Гбайт
    Продолжительность : 32 м.
    Общий поток : 6130 Кбит/сек
    Дата кодирования : UTC 2016-10-03 06: 58: 53
    Программа кодирования : mkvmerge v7.9.0 (\'Birds\') 64bit
    Библиотека кодирования : libebml v1.3.1 + libmatroska v1.4.2
    Видео
    Идентификатор : 1
    Формат : AVC
    Формат/Информация : Advanced Video Codec
    Профиль формата : High@L4.1
    Параметр CABAC формата : Да
    Параметр ReFrames формата : 9 кадров
    Идентификатор кодека : V_MPEG4/ISO/AVC
    Продолжительность : 32 м.
    Битрейт : 5552 Кбит/сек
    Ширина : 1280 пикселей
    Высота : 720 пикселей
    Соотношение сторон : 16: 9
    Режим частоты кадров : Постоянный
    Частота кадров : 25, 000 кадров/сек
    Цветовое пространство : YUV
    Субдискретизация насыщенности : 4: 2: 0
    Битовая глубина : 8 бит
    Тип развёртки : Прогрессивная
    Бит/(Пиксели*Кадры) : 0.241
    Размер потока : 1, 26 Гбайт (91%)
    Библиотека кодирования : x264 core 148 r2721+7 72d53ab/tmod 162ad1b X86_64
    Настройки программы : cabac=1/ref=9/deblock=1: -3: -3/analyse=0x3: 0x113/me=umh/subme=10/psy=1/fade_compensate=0.00/psy_rd=1.05: 0.15/mixed_ref=1/me_range=36/chroma_me=1/trellis=2/8x8dct=1/cqm=0/deadzone=6, 6/fast_pskip=0/chroma_qp_offset=-3/threads=12/lookahead_threads=2/sliced_threads=0/nr=0/decimate=0/interlaced=0/bluray_compat=0/constrained_intra=0/fgo=0/bframes=9/b_pyramid=2/b_adapt=2/b_bias=0/direct=3/weightb=1/open_gop=0/weightp=2/keyint=250/keyint_min=23/scenecut=40/intra_refresh=0/rc=crf/mbtree=0/crf=18.0000/qcomp=0.70/qpmin=0: 0: 0/qpmax=69: 69: 69/qpstep=4/ip_ratio=1.10/pb_ratio=1.10/aq=3: 0.75/aq-sensitivity=10.00/aq-factor=1.00: 1.00: 1.00/aq2=0/aq3=0
    Язык : English
    Default : Да
    Forced : Нет
    Аудио #1
    Идентификатор : 2
    Формат : AC-3
    Формат/Информация : Audio Coding 3
    Расширение режима : CM (complete main)
    Параметр Endianness формата : Big
    Идентификатор кодека : A_AC3
    Продолжительность : 32 м.
    Вид битрейта : Постоянный
    Битрейт : 192 Кбит/сек
    Каналы : 2 канала
    Расположение каналов : Front: L R
    Частота : 48, 0 КГц
    Частота кадров : 31, 250 кадров/сек (1536 spf)
    Метод сжатия : С потерями
    Размер потока : 44, 6 Мбайт (3%)
    Язык : Russian
    Default : Да
    Forced : Нет
    Аудио #2
    Идентификатор : 3
    Формат : AC-3
    Формат/Информация : Audio Coding 3
    Расширение режима : CM (complete main)
    Параметр Endianness формата : Big
    Идентификатор кодека : A_AC3
    Продолжительность : 32 м.
    Вид битрейта : Постоянный
    Битрейт : 384 Кбит/сек
    Каналы : 6 каналов
    Расположение каналов : Front: L C R, Side: L R, LFE
    Частота : 48, 0 КГц
    Частота кадров : 31, 250 кадров/сек (1536 spf)
    Метод сжатия : С потерями
    Размер потока : 89, 3 Мбайт (6%)
    Язык : English
    Default : Нет
    Forced : Нет


    Скриншоты для ознакомления




    Онлайн видео Эш против Зловещих мертвецов



    Эш против Зловещих мертвецов/Ash vs Evil Dead (2016) WEBRip [H.264/720p] (сезон 2, серии 1-8 из 10) Пучков (обновляемая)
    загрузка...
    Рейтинг →
     (голосов: 1, оценка 5/5, голосовать можно 1 раз )

    Другие торренты по теме:

  • Эш против Зловещих мертвецов / Ash vs Evil Dead (2015) WEBRip [H.264 / 720p] [Трейлер] [VO] скачать через торрент бесплатно
  • Эш против Зловещих мертвецов / Ash vs Evil Dead (2015) WEBRip [H.264 / 720p] [Трейлер] [EN] скачать через торрент бесплатно
  • Эш против Зловещих мертвецов / Ash vs Evil Dead (2015) WEBRip [H.264 / 1080p] [Трейлер] скачать через торрент бесплатно
  • Эш против Зловещих мертвецов / Ash vs Evil Dead (2015) HDTVRip (сезон 1, серии 1 из 10) Novamedia (обновляемая) скачать через торрент бесплатно
  • Эш против Зловещих мертвецов / Ash vs Evil Dead (2015) WEB-DLRip (сезон 1, серии 1 из 10) NewStudio (обновляемая) скачать через торрент бесплатно
  • Эш против Зловещих мертвецов / Ash vs Evil Dead (2015) WEBRip [H.264 / 720p-LQ] (сезон 1, серии 1 из 10) Novamedia (обновляемая) скачать через торрент бесплатно
  • Эш против Зловещих мертвецов / Ash vs Evil Dead (2015) HDTVRip [H.264 / 720p-LQ] (сезон 1, серии 1 из 10) Пучков (обновляемая) скачать через торрент бесплатно
  • Эш против Зловещих мертвецов / Ash vs Evil Dead (2015) WEBRip [H.264 / 720p-LQ] (сезон 1, серия 1 из 10) (NewStudio) (обновляемая) скачать через торрент бесплатно


    • Комментарии (0):

      Информация

      Информация

        Посетители, находящиеся в группе Гости, не могут оставлять комментарии в данной новости.

        ↓ Меню




        ↓ Опрос

        Вы добавили сайт в закладки?
        Да
        Нет


        Top 10 за месяц (Фильмы)