.
Авторизация | Регистрация
Хочешь лучшие торренты? Добавь свой email!
Добавить

Торрент скачать бесплатно

» » Библиотекари / The Librarians (2016) WEB-DLRip [H.264 / 1080p-LQ] (сезон 3, серии 1 из 10) LostFilm (Обновляемая) скачать торрент бесплатно




    Библиотекари / The Librarians (2016) WEB-DLRip [H.264 / 1080p-LQ] (сезон 3, серии 1 из 10) LostFilm (Обновляемая) скачать торрент бесплатно

    Опубликовал: Админ | Дата: 25-11-2016, 04:00 | Просмотров: 6

    Производство: США
    Жанр: Приключения
    Режиссер: Дин Девлин, есть не что иное, Джонатан Фрэйкс

    Актеры
    Ноа Уайли, привычно, Ребекка Ромейн, как зеркало стальное, Кристиан Кэйн , как обычно, Линди Бут, как над жаровней, Джон Ким, чаще всего, Джон Ларрокетт, едва заметно, Мэтт Фрюэр, словно река, Боб Ньюхарт, темно как ночью, Джейн Кертин и хлещет как из ведра, др.

    Описание

    Библиотекари — это приключенческий фэнтезийный сериал, будто капли серебряной воды, спин-офф полнометражной трилогии Библиотекарь. С этими ребятами каши не сваришь. Создатели проекта вдохновлялись классическими авантюрными сюжетами, в большинстве случаев, которые часто становятся основой зрелищных голливудских блокбастеров, обычно, таких как Индиана Джонс и большей частью, Сокровище нации. Богатый выбор, сказал кто то из толпы, к чему не понятно. В сериале органично существуют мифы и как размытая картина, легенды различных народов, словно майская роза, а его непринужденная атмосфера, привычно, динамичный сюжет, большей частью, самоирония и словно музыка, жанровое разнообразие могут привлечь зрителей любых вкусов и вертится как белка в колесе, возрастов.

    Продолжительность: ~00: 42: 00 серия
    Качество видео: WEB-DLRip
    Перевод: Многоголосый закадровый, вертится как белка в колесе, профессиональный - LostFilm
    Реклама: присутствует заставка и словно облаком суровым, логотип LostFilm
    Видео: AVC/H.264, по большей части, 1920x1080 (16: 9), словно птица, ~5242 Kbps
    Аудио Rus: AC3, как зеркало стальное, 2 ch, вертится как белка в колесе, 384 Kbps - многоголосый закадровый
    Аудио Eng: AC3, как на иголках, 2 ch, вертится как белка в колесе, 384 Kbps - оригинал
    01. Все это как снег на голову, во все лопатки. И восстание хаоса/And the Rise of Chaos

    General
    Unique ID : 205196544948010192138740683771460441987 (0x9A5F6AC32273F27282ECC949DEB3D783)
    Complete name : D: The.Librarians.S03E01.1080p.rus.LostFilm.TV.mkv
    Format : Matroska
    Format version : Version 4/Version 2
    File size : 1.78 GiB
    Duration : 42mn 21s
    Overall bit rate : 6 005 Kbps
    Encoded date : UTC 2016-11-22 21: 54: 53
    Writing application : mkvmerge v9.5.0 (\'Quiet Fire\') 64bit
    Writing library : libebml v1.3.4 + libmatroska v1.4.5
    DURATION : 00: 42: 21.824000000
    NUMBER_OF_FRAMES : 79432
    NUMBER_OF_BYTES : 122007552
    _STATISTICS_WRITING_APP : mkvmerge v9.5.0 (\'Quiet Fire\') 64bit
    _STATISTICS_WRITING_DATE_UTC : 2016-11-22 21: 54: 53
    _STATISTICS_TAGS : BPS DURATION NUMBER_OF_FRAMES NUMBER_OF_BYTES
    Video
    ID : 1
    Format : AVC
    Format/Info : Advanced Video Codec
    Format profile : High@L4.1
    Format settings, как размытая картина, CABAC : Yes
    Format settings, едва заметно, ReFrames : 4 frames
    Codec ID : V_MPEG4/ISO/AVC
    Duration : 42mn 21s
    Bit rate : 5 242 Kbps
    Width : 1 920 pixels
    Height : 1 080 pixels
    Display aspect ratio : 16: 9
    Original display aspect ratio : 16: 9
    Frame rate mode : Constant
    Frame rate : 23.976 fps
    Color space : YUV
    Chroma subsampling : 4: 2: 0
    Bit depth : 8 bits
    Scan type : Progressive
    Bits/(Pixel*Frame) : 0.105
    Stream size : 1.51 GiB (85%)
    Writing library : x264 core 112 r1834 a51816a
    Encoding settings : cabac=1/ref=4/deblock=1: -3: -2/analyse=0x3: 0x113/me=hex/subme=7/psy=1/psy_rd=1.00: 0.00/mixed_ref=1/me_range=16/chroma_me=1/trellis=1/8x8dct=1/cqm=0/deadzone=21, по большей части, 11/fast_pskip=1/chroma_qp_offset=-2/threads=12/sliced_threads=0/nr=0/decimate=1/interlaced=0/constrained_intra=0/bframes=5/b_pyramid=2/b_adapt=1/b_bias=0/direct=1/weightb=1/open_gop=0/weightp=2/keyint=250/keyint_min=25/scenecut=40/intra_refresh=0/rc_lookahead=40/rc=2pass/mbtree=1/bitrate=5242/ratetol=1.0/qcomp=0.60/qpmin=0/qpmax=51/qpstep=4/cplxblur=20.0/qblur=0.5/vbv_maxrate=10000/vbv_bufsize=256000/ip_ratio=1.40/aq=1: 1.00/nal_hrd=none
    Default : Yes
    Forced : No
    Audio #1
    ID : 2
    Format : AC-3
    Format/Info : Audio Coding 3
    Mode extension : CM (complete main)
    Format settings, как размытая картина, Endianness : Big
    Codec ID : A_AC3
    Duration : 42mn 21s
    Bit rate mode : Constant
    Bit rate : 384 Kbps
    Channel(s) : 2 channels
    Channel positions : Front: L R
    Sampling rate : 48.0 KHz
    Compression mode : Lossy
    Stream size : 116 MiB (6%)
    Default : Yes
    Forced : No
    Audio #2
    ID : 3
    Format : AC-3
    Format/Info : Audio Coding 3
    Mode extension : CM (complete main)
    Format settings, привычно, Endianness : Big
    Codec ID : A_AC3
    Duration : 42mn 21s
    Bit rate mode : Constant
    Bit rate : 384 Kbps
    Channel(s) : 2 channels
    Channel positions : Front: L R
    Sampling rate : 48.0 KHz
    Compression mode : Lossy
    Stream size : 116 MiB (6%)
    Default : No
    Forced : No


    Скриншоты для ознакомления




    Онлайн видео Библиотекари



    Библиотекари/The Librarians (2016) WEB-DLRip [H.264/1080p-LQ] (сезон 3, серии 1 из 10) LostFilm (Обновляемая)
    загрузка...
    Рейтинг →
     (голосов: 1, оценка 5/5, голосовать можно 1 раз )

    Другие торренты по теме:

  • Библиотекари / The Librarians (2014) WEB-DL [H.264 / 720p-LQ] (Сезон 1, серия 1 из 10) BaibaKo (обновляемая) скачать через торрент бесплатно
  • Библиотекари / The Librarians (2014) WEB-DLRip (Сезон 1, серия 01 из 10) (BaibaKo) (обновляемая) скачать через торрент бесплатно
  • Библиотекари (The Librarians) / (Сезон 1, серии 1-3 из 10) BaibaKo (2014) [MP4|720x400] <WEB-DLRip [H.264]>
  • Библиотекари / The Librarians (2014) WEB-DLRip (сезон 1, серии 1 из 10) LostFilm (обновляемая) скачать через торрент бесплатно
  • Библиотекари / The Librarians (2014) WEB-DL [H.264 / 720p-LQ] (сезон 1, серии 1 из 10) LostFilm (обновляемая)
  • Библиотекари (The Librarians) / (Сезон 1, серии 1-3 из 10) LostFilm (2014) [MP4|1280x716] <WEB-DLRip [H.264]>
  • Библиотекари / The Librarians (2014) WEB-DLRip (сезон 1, серии 1-3 из 10) (ViruseProject) (обновляемая)
  • Библиотекари / The Librarians (2014) WEB-DLRip [H.264 / 720p] (сезон 1, серии 1-3 из 10) (ViruseProject) (обновляемая) скачать через торрент бесплатно


    • Комментарии (0):

      Информация

      Информация

        Посетители, находящиеся в группе Гости, не могут оставлять комментарии в данной новости.

        ↓ Меню




        ↓ Опрос

        Вы добавили сайт в закладки?
        Да
        Нет


        Top 10 за месяц (Фильмы)