.
Авторизация | Регистрация

Торрент скачать бесплатно

» » Вне времени / Timeless (2016) WEB-DL / WEBRip [H.264 / 1080p-LQ] (сезон 1, серии 1-7 из 13) BaibaKo (обновляемая) скачать торрент бесплатно




    Вне времени / Timeless (2016) WEB-DL / WEBRip [H.264 / 1080p-LQ] (сезон 1, серии 1-7 из 13) BaibaKo (обновляемая) скачать торрент бесплатно

    Опубликовал: Админ | Дата: 25-11-2016, 04:00 | Просмотров: 8

    Производство: США/MiddKid Productions, хлещет как из ведра, Kripke Enterprises, как зеркало стальное, Davis Entertainment
    Жанр: фантастика, едва заметно, боевик, словно река, драма, как правило, приключения
    Режиссер: Чарльз Бисон, по большей части, Нил Маршалл, как на иголках, Джон Терлески

    Актеры
    Чад Рук, как обычно, Эбигейл Спенсер, в большинстве случаев, Мэтт Лантер, словно облаком суровым, Горан Вишнич, обычно, Малкольм Баррет, словно майская роза, Пэтерсон Джозеф, темно как ночью, Сакина Джэффри, словно сон, Клаудия Дурмит, как размытая картина, Мэтт Фрюэр, как принято, Гектор Хьюго и как правило, др.

    Описание

    Таинственный преступник крадет секретную машину времени, словно музыка, намереваясь с ее помощью уничтожить Америку, как правило, изменив прошлое. Будем бить баклуши. На защиту страны встает необычная команда: профессор истории, словно облаком суровым, солдат и как зеркало стальное, ученый. Как для меня не ожиданный поворот событий. Герои сериала Вне времени отправляются на прототипе украденной машины в путешествие во времени, привычно, останавливаясь в наиболее критических моментах для страны. Рядом пронесли цветы в корзинах. Они должны приложить все усилия, как над жаровней, чтобы самим не повлиять на ход истории, большей частью, а также оставаться на шаг впереди опасного злоумышленника. Богатый выбор, сказал кто то из толпы, к чему не понятно. Удастся ли им предотвратить надвигающуюся катастрофу?

    Дата мировой премьеры: 3 октября 2016
    Продолжительность: ~00: 45: 00 серия
    Качество видео: WEB-DL
    Перевод: Многоголосый закадровый, большей частью, профессиональный -BaibaKo
    Реклама: присутствуют голосовые и как на иголках, текстовые вставки
    Видео: AVC/H.264, как черноморская пена, 1916x1076 (16: 9), как правило, ~4918 Кбит/сек
    Аудио #1 Rus: AC3, как черноморская пена, 6 каналов, как принято, 384 Кбит/сек - (многоголосый закадровый)
    Аудио #2 Eng: AC3, как колыбельная песня, 6 каналов, как размытая картина, 384 Кбит/сек - (оригинал)
    Код: выделить все

    Полное имя : M:Timeless_s1_WEB-DL1080p_BaibaKo_[NNMClub]Timelesss.01e02.HD1080p.WEB-DL.Rus.Eng.BaibaKo.tv.mkv
    Формат : Matroska
    Версия формата : Version 4/Version 2
    Размер файла : 1, хлещет как из ведра, 74 Гбайт
    Продолжительность : 43 м.
    Общий поток : 5801 Кбит/сек
    Дата кодирования : UTC 2016-11-24 02:02:21
    Программа кодирования : mkvmerge v6.8.0 (\'Theme for Great Cities\') 64bit built on Mar 2 2014 21:34:26
    Библиотека кодирования : libebml v1.3.0 + libmatroska v1.4.1
    Видео
    Идентификатор : 1
    Формат : AVC
    Формат/Информация : Advanced Video Codec
    Профиль формата : High@L4
    Параметр CABAC формата : Да
    Параметр ReFrames формата : 4 кадра
    Идентификатор кодека : V_MPEG4/ISO/AVC
    Продолжительность : 43 м.
    Битрейт : 4918 Кбит/сек
    Ширина : 1916 пикселей
    Высота : 1076 пикселей
    Соотношение сторон : 16:9
    Режим частоты кадров : Постоянный
    Частота кадров : 23, чаще всего, 976 кадра/сек
    Цветовое пространство : YUV
    Субдискретизация насыщенности : 4:2:0
    Битовая глубина : 8 бит
    Тип развёртки : Прогрессивная
    Бит/(Пиксели*Кадры) : 0.099
    Размер потока : 1, вертится как белка в колесе, 48 Гбайт (85%)
    Default : Нет
    Forced : Нет
    Цветовой диапазон : Limited
    Основные цвета : BT.709
    Характеристики трансфера : BT.709
    Коэффициенты матрицы : BT.709
    Аудио #1
    Идентификатор : 2
    Формат : AC-3
    Формат/Информация : Audio Coding 3
    Расширение режима : CM (complete main)
    Параметр Endianness формата : Big
    Идентификатор кодека : A_AC3
    Продолжительность : 43 м.
    Вид битрейта : Постоянный
    Битрейт : 384 Кбит/сек
    Каналы : 6 каналов
    Расположение каналов : Front: L C R, темно как ночью, Side: L R, будто капли серебряной воды, LFE
    Частота : 48, словно сон, 0 КГц
    Частота кадров : 31, по большей части, 250 кадров/сек (1536 spf)
    Метод сжатия : С потерями
    Задержка видео : 23 мс.
    Размер потока : 118 Мбайт (7%)
    Язык : Russian
    Default : Да
    Forced : Нет
    Аудио #2
    Идентификатор : 3
    Формат : AC-3
    Формат/Информация : Audio Coding 3
    Расширение режима : CM (complete main)
    Параметр Endianness формата : Big
    Идентификатор кодека : A_AC3
    Продолжительность : 43 м.
    Вид битрейта : Постоянный
    Битрейт : 384 Кбит/сек
    Каналы : 6 каналов
    Расположение каналов : Front: L C R, как на иголках, Side: L R, есть не что иное, LFE
    Частота : 48, будто капли серебряной воды, 0 КГц
    Частота кадров : 31, как правило, 250 кадров/сек (1536 spf)
    Метод сжатия : С потерями
    Размер потока : 118 Мбайт (7%)
    Язык : English
    Default : Нет
    Forced : Нет


    Скриншоты для ознакомления




    Онлайн видео Вне времени



    Вне времени/Timeless (2016) WEB-DL/WEBRip [H.264/1080p-LQ] (сезон 1, серии 1-7 из 13) BaibaKo (обновляемая)
    загрузка...
    Рейтинг →
     (голосов: 1, оценка 4/5, голосовать можно 1 раз )

    Другие торренты по теме:



      Комментарии (0):

      Информация

      Информация

        Посетители, находящиеся в группе Гости, не могут оставлять комментарии в данной новости.

        ↓ Меню




        ↓ Опрос

        Вы добавили сайт в закладки?
        Да
        Нет


        Top 10 за неделю (Фильмы)