.
Авторизация | Регистрация
Хочешь лучшие торренты? Добавь свой email!
Добавить

Торрент скачать бесплатно

» » Мажор (2016) WEBRip (сезон 2, серий 1-12 из 12) торрент скачать бесплатно




    Мажор (2016) WEBRip (сезон 2, серий 1-12 из 12) торрент скачать бесплатно

    Опубликовал: Админ | Дата: 25-11-2016, 04:00 | Просмотров: 13

    Производство: Россия/Продюсерская компания Среда
    Жанр: Драма, Криминал
    Режиссер: Николай Булыгин, Максим Полинский

    Актеры
    Павел Прилучный, Карина Разумовская, Дмитрий Шевченко, Денис Шведов, Александр Обласов, Дана Абызова, Анна Цуканова-Котт, Любовь Аксёнова, Никита Панфилов, Игорь Жижикин и др...

    Описание

    Продолжение сериала Мажор.
    Неожиданно для всех Игоря Соколовского выпускают из СИЗО, сняв все обвинения в покушении на жизнь бизнесмена Игнатьева. Но Мажор выходит с одним-единственным желанием – отомстить, так как он считает Игнатьева виновным в смерти отца и матери. Соколовский возвращается на службу в полицию, возглавляет бизнес отца, который перешел ему по наследству, заводит красивый и яркий роман с Катей. Мучается из-за отношений с Викой – они так и не смогли забыть друг друга. И день за днем торопит развязку – уничтожение Игнатьева. О таком странном сюжете не догадывалась даже Бейонсе. Но что будет после того, как цель достигнута? После того, как придется посмотреть на победу с другой стороны…

    Возраст: 16+ (зрителям, достигшим 16 лет)
    Дата российской премьеры: 14 ноября 2016
    Продолжительность: ~ 00: 50: 00 серия
    Качество видео: WEBRip
    Видео: Xvid, 720x400 (16: 9), ~1917 Kbp
    Аудио: AC3, 2 ch, 192 Kbps, CBR

    Общее
    Полное имя : D: Мои фильмыMazhor_S2_1-12iz12_2016_XviD_WEBRipMazhor_S2_01_WEBRip.avi
    Формат : AVI
    Формат/Информация : Audio Video Interleave
    Размер файла : 746 Мбайт
    Продолжительность : 49 м. 11 с.
    Общий поток : 2119 Кбит/сек
    Программа кодирования : VirtualDubMod 1.5.10.3 (build 2550/release)
    Библиотека кодирования : VirtualDub build 35491/release
    Видео
    Идентификатор : 0
    Формат : MPEG-4 Visual
    Профиль формата : Advanced Simple@L5
    Параметр BVOP формата : 2
    Параметр QPel формата : Нет
    Параметр GMC формата : Без точки перехода
    Параметр матрицы формата : Default (H.263)
    Идентификатор кодека : XVID
    Идентификатор кодека/Подсказка : XviD
    Продолжительность : 49 м. 11 с.
    Битрейт : 1917 Кбит/сек
    Ширина : 720 пикселей
    Высота : 400 пикселей
    Соотношение сторон : 16: 9
    Частота кадров : 25, 000 кадров/сек
    Цветовое пространство : YUV
    Субдискретизация насыщенности : 4: 2: 0
    Битовая глубина : 8 бит
    Тип развёртки : Прогрессивная
    Метод сжатия : С потерями
    Бит/(Пиксели*Кадры) : 0.266
    Размер потока : 675 Мбайт (90%)
    Библиотека кодирования : XviD 67
    Аудио
    Идентификатор : 1
    Формат : AC-3
    Формат/Информация : Audio Coding 3
    Расширение режима : CM (complete main)
    Параметр Endianness формата : Big
    Идентификатор кодека : 2000
    Продолжительность : 49 м. 11 с.
    Вид битрейта : Постоянный
    Битрейт : 192 Кбит/сек
    Каналы : 2 канала
    Расположение каналов : Front: L R
    Частота : 48, 0 КГц
    Частота кадров : 31, 250 кадров/сек (1536 spf)
    Битовая глубина : 16 бит
    Метод сжатия : С потерями
    Размер потока : 67, 6 Мбайт (9%)
    Выравнивание : Соединение по промежуткам
    Продолжительность промежутка : 40 мс. (1, 00 видеокадр)
    Время предзагрузки промежутка : 512 мс.


    Скриншоты для ознакомления




    Онлайн видео Мажор (2016) WEBRip (сезон любимого сериала 2, серий 1



    Мажор (2016) WEBRip (сезон 2, серий 1-12 из 12)
    загрузка...
    Рейтинг →
     (голосов: 1, оценка 5/5, голосовать можно 1 раз )

    Другие торренты по теме:

  • Профессия репортер. Батальон мажор (2014.10.25) SATRip скачать через торрент бесплатно
  • Мажор (2014) HDTVRip (серии 1-4 из 12) (обновляемая) скачать через торрент бесплатно
  • Мажор (2014) HDTV [H.264 / 1080i-LQ] (серии 1-4 из 12) (обновляемая) скачать через торрент бесплатно
  • Мажор (2014) SATRip (серии 1-4 из 12) (обновляемая) скачать через торрент бесплатно
  • Мажор (2014) HDTVRip [H.264 / 720p-LQ] (серии 1- из 12) (обновляемая) скачать через торрент бесплатно
  • Мажор (2014) WEB-DLRip (серии 1-6 из 12) (обновляемая) скачать через торрент бесплатно
  • Мажор (2014) WEB-DLRip [H.264 / 720p-LQ] (серии 1-6 из 12) (обновляемая) скачать через торрент бесплатно
  • Мажор (2014) WEB-DLRip [H.264 / 1080p-LQ] (серии 1-12 из 12)


    • Комментарии (0):

      Информация

      Информация

        Посетители, находящиеся в группе Гости, не могут оставлять комментарии в данной новости.

        ↓ Меню




        ↓ Опрос

        Вы добавили сайт в закладки?
        Да
        Нет


        Top 10 за месяц (Фильмы)