.
Авторизация | Регистрация
Хочешь лучшие торренты? Добавь свой email!
Добавить

Торрент скачать бесплатно

» » Научи меня жить (2016) HDTV [H.264 / 1080i] (сезон 1, серии 1-2 из 12) (обновляемая) торрент скачать бесплатно




    Научи меня жить (2016) HDTV [H.264 / 1080i] (сезон 1, серии 1-2 из 12) (обновляемая) торрент скачать бесплатно

    Опубликовал: Админ | Дата: 24-11-2016, 04:00 | Просмотров: 30

    Производство: Россия/Компания Amalgama Studio
    Жанр: детектив
    Режиссер: Валентин Донсков

    Актеры
    Кирилл Кяро, Анна Попова, Алексей Барабаш, Елена Подкаминская, Игорь Скляр, Юрий Цурило, Андрей Казаков, Василий Мищенко, Елена Яковлева, Андрей Фролов.

    Описание

    В городе обнаруживают труп неизвестной женщины — ритуальный характер преступления предполагает появление в городе маньяка. В помощь штатному следователю Рите Сторожевой к расследованию привлекают профессионального психиатра Илью Лаврова, в прошлом уже участвовавшего в поимке маньяков. Личные мотивы и чувства, болезненные события прошлого, неспособность выйти на открытый контакт — всё это лишает расследование объективности и порождает череду драматических ошибок.

    Дата российской премьеры: 23 ноября 2016
    Продолжительность: ~00: 49: 00 серия
    Качество видео: HDTV 1080i
    Видео: AVC/H.264, 1920x1080, 25.000 fps, ~5417 Kbps
    Аудио 1: AC3, 6 ch, 384 Kbps, CBR
    Аудио 2: MP2, 2 ch, 192 Kbps, CBR
    YouTube

    Общее
    Идентификатор : 1 (0x1)
    Полное имя : D: ФильмыМои раздачиНаучи меня житьНаучи меня жить.HDTV.1080iНаучи меня жить.01.HDTV.1080i.ts
    Формат : MPEG-TS
    Размер файла : 2, 16 Гбайт
    Продолжительность : 48 м.
    Режим общего битрейта : Переменный
    Общий поток : 6311 Кбит/сек
    Видео
    Идентификатор : 1904 (0x770)
    Идентификатор меню : 80 (0x50)
    Формат : AVC
    Формат/Информация : Advanced Video Codec
    Профиль формата : High@L4.0
    Параметр CABAC формата : Да
    Параметр ReFrames формата : 3 кадра
    Идентификатор кодека : 27
    Продолжительность : 48 м.
    Битрейт : 5417 Кбит/сек
    Ширина : 1920 пикселей
    Высота : 1080 пикселей
    Соотношение сторон : 16: 9
    Частота кадров : 25, 000 кадров/сек
    Стандарт вещания : Component
    Цветовое пространство : YUV
    Субдискретизация насыщенности : 4: 2: 0
    Битовая глубина : 8 бит
    Тип развёртки : Чересстрочная
    Порядок развёртки : Верхнее поле первое
    Бит/(Пиксели*Кадры) : 0.104
    Размер потока : 1, 85 Гбайт (86%)
    Основные цвета : BT.709
    Характеристики трансфера : BT.709
    Коэффициенты матрицы : BT.709
    Аудио #1
    Идентификатор : 2904 (0xB58)
    Идентификатор меню : 80 (0x50)
    Формат : AC-3
    Формат/Информация : Audio Coding 3
    Расширение режима : CM (complete main)
    Параметр Endianness формата : Big
    Идентификатор кодека : 6
    Продолжительность : 48 м.
    Вид битрейта : Постоянный
    Битрейт : 384 Кбит/сек
    Каналы : 6 каналов
    Расположение каналов : Front: L C R, Side: L R, LFE
    Частота : 48, 0 КГц
    Битовая глубина : 16 бит
    Метод сжатия : С потерями
    Размер потока : 134 Мбайт (6%)
    Язык : Russian
    Аудио #2
    Идентификатор : 2905 (0xB59)
    Идентификатор меню : 80 (0x50)
    Формат : MPEG Audio
    Версия формата : Version 1
    Профиль формата : Layer 2
    Идентификатор кодека : 3
    Продолжительность : 48 м.
    Вид битрейта : Постоянный
    Битрейт : 192 Кбит/сек
    Каналы : 2 канала
    Частота : 48, 0 КГц
    Метод сжатия : С потерями
    Размер потока : 67, 2 Мбайт (3%)
    Язык : Russian


    Скриншоты для ознакомления




    Онлайн видео Научи меня жить (2016) HDTV [H.264



    Научи меня жить (2016) HDTV [H.264/1080i] (сезон 1, серии 1-2 из 12) (обновляемая)
    загрузка...
    Рейтинг →
     (голосов: 1, оценка 3/5, голосовать можно 1 раз )

    Другие торренты по теме:

  • Научи меня жить (2016) SATRip (сезон 1, серии 1-2 из 12) (обновляемая)
  • Научи меня жить (2016) HDTVRip (сезон 1, серии 1-2 из 12) (обновляемая)
  • Научи меня жить (2016) HDTVRip [H.264 / 720p] (сезон 1, серии 1-2 из 12) (обновляемая)
  • Научи меня жить (2016) SATRip (серии 1-4 из 12) [H.264] (Обновляемая)
  • Научи меня жить (2016) WEB-DL [H.264 / 720p-LQ] (сезон 1, серии 1-8 из 12) (обновляемая)
  • Научи меня жить (2016) WEB-DLRip (сезон 1, серии 1-8 из 12) (обновляемая)
  • Научи меня жить (2016) WEB-DLRip [H.264 / 1080p-LQ] (сезон 1, серии 1-12 из 12)


    • Комментарии (0):

      Информация

      Информация

        Посетители, находящиеся в группе Гости, не могут оставлять комментарии в данной новости.

        ↓ Меню




        ↓ Опрос

        Вы добавили сайт в закладки?
        Да
        Нет


        Top 10 за месяц (Фильмы)