.
Авторизация | Регистрация
Хочешь лучшие торренты? Добавь свой email!
Добавить

Торрент скачать бесплатно

» » Стэн против сил зла / Stan Against Evil (2016) WEB-DL [H.264 / 720p-LQ] (сезон 1, серия 1 из 8) NewStudio (обновляемая) торрент скачать бесплатно




    Стэн против сил зла / Stan Against Evil (2016) WEB-DL [H.264 / 720p-LQ] (сезон 1, серия 1 из 8) NewStudio (обновляемая) торрент скачать бесплатно

    Опубликовал: Админ | Дата: 24-11-2016, 04:00 | Просмотров: 28

    Производство: США, 3 Arts Entertainment, Radical Media
    Жанр: Ужасы, Комедия, Фэнтези
    Режиссер: Джек Бишоп, Джастин Ниджм

    Актеры
    Джон К. МакГинли, Нат Муни, Дебора Бэйкер мл., Джанет Вэрни, Даниэль Фелан, Грегори Нассиф Ст. Прикольно все это наверно придумал Европарламент потратив достаточно времени. Джон, Ник Армстронг, Мика Шэйн Боллинджер

    Описание

    Сварливый и принципиальный шериф городка Нью-Гэмпшир Стэнли Миллер теряет должность после того, как устраивает скандал в самый неподходящий момент — на похоронах собственной жены. Вскоре новый шериф Иви Баррет узнает, что городу угрожают свирепые демоны. Она уговаривает Стэнли помочь ей отразить атаку монстров.

    Продолжительность: ~00: 22: 00 серия
    Качество видео: WEB-DL
    Перевод: Многоголосый закадровый, профессиональный -NewStudio
    Реклама: нет
    Видео: AVC/H.264 (16: 9), 1280x718, ~4020 Кбит/сек
    Аудио Rus: AC3, 6 ch, 384 Кбит/сек - Многоголосый закадровый
    Аудио Eng: AC3, 6 ch, 384 Кбит/сек - оригинал

    Общее
    Уникальный идентификатор : 170915318033373201570633221891467165770 (0x809517C7FFC52EA6B93A90C20E2EC04A)
    Полное имя : D: Стэн против сил зла (Season 01) NewStudio 720Stan.Against.Evil.s01e01.WEBDL.720p.NewStudio.TV.mkv
    Формат : Matroska
    Версия формата : Version 4/Version 2
    Размер файла : 748 Мбайт
    Продолжительность : 21 м. 50 с.
    Общий поток : 4790 Кбит/сек
    Дата кодирования : UTC 2016-11-22 15: 29: 23
    Программа кодирования : mkvmerge v9.4.2 (\'So High\') 64bit
    Библиотека кодирования : libebml v1.3.4 + libmatroska v1.4.5
    Видео
    Идентификатор : 1
    Формат : AVC
    Формат/Информация : Advanced Video Codec
    Профиль формата : High@L3.1
    Параметр CABAC формата : Нет
    Параметр ReFrames формата : 2 кадра
    Идентификатор кодека : V_MPEG4/ISO/AVC
    Продолжительность : 21 м. 50 с.
    Битрейт : 4020 Кбит/сек
    Ширина : 1280 пикселей
    Высота : 718 пикселей
    Соотношение сторон : 16: 9
    Режим частоты кадров : Постоянный
    Частота кадров : 23, 976 (24000/1001) кадра/сек
    Цветовое пространство : YUV
    Субдискретизация насыщенности : 4: 2: 0
    Битовая глубина : 8 бит
    Тип развёртки : Прогрессивная
    Бит/(Пиксели*Кадры) : 0.182
    Размер потока : 628 Мбайт (84%)
    Язык : English
    Default : Да
    Forced : Нет
    Цветовой диапазон : Limited
    Основные цвета : BT.709
    Характеристики трансфера : BT.709
    Коэффициенты матрицы : BT.709
    Аудио #1
    Идентификатор : 2
    Формат : AC-3
    Формат/Информация : Audio Coding 3
    Расширение режима : CM (complete main)
    Параметр Endianness формата : Big
    Идентификатор кодека : A_AC3
    Продолжительность : 21 м. 50 с.
    Вид битрейта : Постоянный
    Битрейт : 384 Кбит/сек
    Каналы : 6 каналов
    Расположение каналов : Front: L C R, Side: L R, LFE
    Частота : 48, 0 КГц
    Частота кадров : 31, 250 кадров/сек (1536 spf)
    Метод сжатия : С потерями
    Размер потока : 60, 0 Мбайт (8%)
    Язык : English
    Default : Нет
    Forced : Нет
    Аудио #2
    Идентификатор : 3
    Формат : AC-3
    Формат/Информация : Audio Coding 3
    Расширение режима : CM (complete main)
    Параметр Endianness формата : Big
    Идентификатор кодека : A_AC3
    Продолжительность : 21 м. 50 с.
    Вид битрейта : Постоянный
    Битрейт : 384 Кбит/сек
    Каналы : 6 каналов
    Расположение каналов : Front: L C R, Side: L R, LFE
    Частота : 48, 0 КГц
    Частота кадров : 31, 250 кадров/сек (1536 spf)
    Метод сжатия : С потерями
    Размер потока : 60, 0 Мбайт (8%)
    Язык : Russian
    Default : Да
    Forced : Да


    Скриншоты для ознакомления




    Онлайн видео Стэн против сил зла



    Стэн против сил зла/Stan Against Evil (2016) WEB-DL [H.264/720p-LQ] (сезон 1, серия 1 из 8) NewStudio (обновляемая)
    загрузка...
    Рейтинг →
     (голосов: 1, оценка 5/5, голосовать можно 1 раз )

    Другие торренты по теме:

  • Стэн против сил зла / Stan Against Evil (2016) WEB-DL [H.264 / 1080p-LQ] (сезон 1, серии 1-8 из 8) HamsterStudio
  • Стэн против сил зла / Stan Against Evil (2016) WEBRip [H.264 / 720p-LQ] (сезон 1, серии 1-8 из 8) Jaskier


    • Комментарии (0):

      Информация

      Информация

        Посетители, находящиеся в группе Гости, не могут оставлять комментарии в данной новости.

        ↓ Меню




        ↓ Опрос

        Вы добавили сайт в закладки?
        Да
        Нет


        Top 10 за месяц (Фильмы)